Information of news
  • Views: 85
  • Author: so131086
  • Date: 25-01-2013, 23:33
 (Votes #: 0)

The Structure of Man HD

Category: Tutorial

Download Now

The Structure of Man HD
The Structure of Man HD with Riven Phoenix
Learn To Draw The Human Figure From Your Mind

227xHDRip | English | WMV | 1280 x 720 | WMV2 ~1961 kbps | 15 fps
WMA | 1411 Kbps | 32.0 KHz | 1 channel | ~96 hours | 37.98 GB
Genre: Video Tutorial / Drawing

The training included on the "Structure of Man” DVDs is nothing short of remarkable. I am not even halfway through this (stunningly) comprehensive series of anatomy drawing videos, and I would urge anyone with the slightest interest in fine art to invest in this training without hesitation. Taking the viewer from the basic formulas of human proportion to the creation of advanced skeletal and muscle structures (and beyond), Mr. Phoenix has been truly generous with his time and talent, creating a product that will surely stand the test of time as one of the foremost instructional resources on the topic of human anatomy illustration.
In addition to his astounding artistic skill, Phoenix is also a fine educator, and I have already recommended this set to several friends and colleagues (all of whom agree that “The Structure of Man” has been of greater educational value than all of the drawing classes they took in college put together). What’s more, the teaching style that Phoenix employs can bring anyone with the proper motivation (with or without prior fine art experience) the knowledge required to fully realize the intricate concept of human invention - so much so that the formulas become as easy to recall as the language we speak every day. With lessons learned from this set, one will have the freedom and confidence to later infuse their own artistic sensibilities into the creation of the human form – and from any imaginable perspective and pose. “The Structure of Man” is a treasured collection in my multimedia-training library, and I look forward to any future projects that Mr. Phoenix has planned for the future.

The Structure of Man has been of great help with my understanding of Human Anatomy, but even a greater help for just observing my environment in basic shapes and structures in order to put it down on paper. It proposes fresh ideas, detailed step by step that won't let down anyone taking the challenge. I even think anyone who would like to give it a try, even if they never made a single doodle in the past, could easily understand and work with these videos. Don't hesitate to try this fascinating experience, you have nothing to lose and everything to win!

The Structure of Man HD Course Contents
1 Human Being HD
2 Gesture Drawing Systems HD
3 Figure Sketching Basics HD
4 Human Proportions Basics HD
5 Drawing The Human Head Basics HD

MediaInfo:
General
Complete name : HumanBeingHD004.wmv
Format : Windows Media
File size : 270 MiB
Duration : 18mn 56s
Overall bit rate mode : Variable
Overall bit rate : 1 991 Kbps
Maximum Overall bit rate : 4 376 Kbps
Encoded date : UTC 2010-09-08 04:23:17.404
Video #2
ID : 2
Format : WMV2
Codec ID : WMV2
Codec ID/Info : Windows Media Video 8
Description of the codec : Windows Media Video V8
Duration : 18mn 56s
Bit rate mode : Variable
Bit rate : 1 961 Kbps
Width : 1 280 pixels
Height : 720 pixels
Display aspect ratio : 16:9
Frame rate : 15.000 fps
Bit depth : 8 bits
Bits/(Pixel*Frame) : 0.142
Stream size : 266 MiB (98%)
Language : English (US)
Audio #1
ID : 1
Format : WMA
Format version : Version 2
Codec ID : 161
Codec ID/Info : Windows Media Audio
Description of the codec : Windows Media Audio 9.2 - 20 kbps, 32 kHz, mono (A/V) 1-pass CBR
Duration : 18mn 56s
Bit rate mode : Constant
Bit rate : 1 411 Kbps
Channel(s) : 1 channel
Sampling rate : 32.0 KHz
Bit depth : 16 bits
Stream size : 191 MiB (71%)
Language : English (US)

Screenshots

The Structure of Man HD

The Structure of Man HD

The Structure of Man HD

The Structure of Man HD

The Structure of Man HD


Download links:
http://uploaded.net/file/3w859pq5/TSOfManHD.part56.rar
http://uploaded.net/file/nfvrxuua/TSOfManHD.part55.rar
http://uploaded.net/file/s0tdte2l/TSOfManHD.part54.rar
http://uploaded.net/file/7i0l6ofl/TSOfManHD.part53.rar
http://uploaded.net/file/8z90842c/TSOfManHD.part52.rar
http://uploaded.net/file/9a9rrj41/TSOfManHD.part51.rar
http://uploaded.net/file/c1fefdug/TSOfManHD.part50.rar
http://uploaded.net/file/4ak442bi/TSOfManHD.part49.rar
http://uploaded.net/file/6milh0q0/TSOfManHD.part48.rar
http://uploaded.net/file/el7wdwu5/TSOfManHD.part47.rar
http://uploaded.net/file/vve6kg3b/TSOfManHD.part46.rar
http://uploaded.net/file/1nujtc6q/TSOfManHD.part45.rar
http://uploaded.net/file/f4owyvfl/TSOfManHD.part44.rar
http://uploaded.net/file/qpklezio/TSOfManHD.part43.rar
http://uploaded.net/file/ocdjyqvt/TSOfManHD.part42.rar
http://uploaded.net/file/fud9u92p/TSOfManHD.part41.rar
http://uploaded.net/file/e6yb64ei/TSOfManHD.part40.rar
http://uploaded.net/file/6pzfhf3y/TSOfManHD.part39.rar
http://uploaded.net/file/sn1ed42q/TSOfManHD.part38.rar
http://uploaded.net/file/jttoes6o/TSOfManHD.part37.rar
http://uploaded.net/file/6reagopz/TSOfManHD.part36.rar
http://uploaded.net/file/wub264f9/TSOfManHD.part35.rar
http://uploaded.net/file/2eiu7sz7/TSOfManHD.part34.rar
http://uploaded.net/file/3q6pk888/TSOfManHD.part33.rar
http://uploaded.net/file/6epgcnyt/TSOfManHD.part32.rar
http://uploaded.net/file/7u1quj27/TSOfManHD.part31.rar
http://uploaded.net/file/ao3gjyoo/TSOfManHD.part30.rar
http://uploaded.net/file/opgmt0pz/TSOfManHD.part29.rar
http://uploaded.net/file/b4v0sool/TSOfManHD.part28.rar
http://uploaded.net/file/3bownhf8/TSOfManHD.part27.rar
http://uploaded.net/file/u2zs2pug/TSOfManHD.part26.rar
http://uploaded.net/file/4v65az2l/TSOfManHD.part25.rar
http://uploaded.net/file/bdjfff7s/TSOfManHD.part24.rar
http://uploaded.net/file/chaocz5d/TSOfManHD.part23.rar
http://uploaded.net/file/c6z67dsg/TSOfManHD.part22.rar
http://uploaded.net/file/c273m88x/TSOfManHD.part21.rar
http://uploaded.net/file/bsx1xkdu/TSOfManHD.part20.rar
http://uploaded.net/file/9l8pv6f0/TSOfManHD.part19.rar
http://uploaded.net/file/5uoqmkm4/TSOfManHD.part18.rar
http://uploaded.net/file/8po86rve/TSOfManHD.part17.rar
http://uploaded.net/file/1lu3vxdd/TSOfManHD.part16.rar
http://uploaded.net/file/zc9j8o5o/TSOfManHD.part15.rar
http://uploaded.net/file/alyae0iw/TSOfManHD.part14.rar
http://uploaded.net/file/qwsne8yg/TSOfManHD.part13.rar
http://uploaded.net/file/05mdtjcz/TSOfManHD.part12.rar
http://uploaded.net/file/qa0d275a/TSOfManHD.part11.rar
http://uploaded.net/file/ogdd3g3m/TSOfManHD.part10.rar
http://uploaded.net/file/9lhjm36j/TSOfManHD.part09.rar
http://uploaded.net/file/izbz5diw/TSOfManHD.part08.rar
http://uploaded.net/file/pli57k83/TSOfManHD.part07.rar
http://uploaded.net/file/jxglng0r/TSOfManHD.part06.rar
http://uploaded.net/file/v6w7hf86/TSOfManHD.part05.rar
http://uploaded.net/file/qeimcdhf/TSOfManHD.part04.rar
http://uploaded.net/file/t491334s/TSOfManHD.part03.rar
http://uploaded.net/file/qqhk6ucf/TSOfManHD.part02.rar
http://uploaded.net/file/h28ysbr9/TSOfManHD.part01.rar
Direct Download


Tags: Structure


The Structure of Man HD Fast Download via Rapidshare Hotfile Fileserve Filesonic Megaupload, The Structure of Man HD Torrents and Emule Download or anything related.
Dear visitor, you went to website as unregistered user.
We encourage you to Register or Login to website under your name.

Add comments

Name:*
E-Mail:*
Comments:
Enter Code: *