Information of news
  • Views: 138
  • Author: jinghaiyu
  • Date: 17-04-2012, 18:47
 (Votes #: 0)

BBC Design Rules (New Links)

Category: Tutorial

Download Now

BBC Design Rules (New Links)

BBC Design Rules
English | AVI | XviD 1495kbps | 736x400 | 25fps | 3 hours | MP3 stereo 155kbps | 2 GB
Genre: Video Training


Laurence Llewelyn-Bowen gets right down to the fundamentals of design in this fascinating back-to-basics series. He tackles real problems in real homes as he explores six themes: space, colour, light, texture and pattern, balance and order, and personality. In addition to his own in-depth knowledge of design principles, Laurence calls on a colour forecaster, psychologists and a perception specialist to explain and demonstrate the science behind the how and the why. Taking a real home where a design problem is all too apparent, he demonstrates some simple psychology and basic experiments in a design lab back at the studio and it's all done without knocking down walls or spending big bucks.

Space comes under the spotlight in the first programme. Lack of space is a common problem in British homes which, surprisingly, have 20 square metres less space than Japanese homes, with an average of only 120 square metres.

"The cardinal sin that the British indulge in beyond any other nation is the concept of agoraphobic furniture that feels it needs to keep its back against the wall at all times in case something unpleasant happens to it!" quips Laurence.

By painting the walls a paler colour, bringing the outside inside by strategically placing an eye-catching object outside the window and switching to light-reflecting flooring, the brain is deluded into thinking that the room is bigger. Suddenly, the crowded living room is calmer and seems larger thanks to a little bit of science and the tricks of design rules.

Eye brain specialist Dr Ione Fine comments: "Half of interior design is illusion."And on a practical note, Laurence shows why it's better to buy a couple of two-seater sofas because three people never sit on a three-seater

6 episode series:
1-Space and Planning
2-Colour
3-Light
4-Textures and pattern
5-Balance and order
6-Personality

Mediainfo:

Format : AVI
Format/Info : Audio Video Interleave
File size : 338 MiB
Duration : 28mn 26s
Overall bit rate : 1 663 Kbps
Writing application : VirtualDubMod 1.5.10.2 (build 2540/release)
Writing library : VirtualDubMod build 2540/release
Video #0
ID : 0
Format : MPEG-4 Visual
Format profile : [email protected]
Format settings, BVOP : Yes
Format settings, QPel : Yes
Format settings, GMC : 3 warppoints
Format settings, Matrix : Default (H.263)
Muxing mode : Packed bitstream
Codec ID : XVID
Codec ID/Hint : XviD
Duration : 28mn 26s
Bit rate : 1 495 Kbps
Width : 736 pixels
Height : 400 pixels
Display aspect ratio : 16:9
Frame rate : 25.000 fps
Resolution : 24 bits
Colorimetry : 4:2:0
Scan type : Interlaced
Scan order : Bottom Field First
Bits/(Pixel*Frame) : 0.203
Stream size : 304 MiB (90%)
Writing library : XviD 1.2.0SMP (UTC 2006-01-08)
Audio #1
ID : 1
Format : MPEG Audio
Format version : Version 1
Format profile : Layer 3
Codec ID : 55
Codec ID/Hint : MP3
Duration : 28mn 26s
Bit rate mode : Variable
Bit rate : 155 Kbps
Nominal bit rate : 160 Kbps
Channel(s) : 2 channels
Sampling rate : 48.0 KHz
Resolution : 16 bits
Stream size : 31.6 MiB (9%)
Alignment : Aligned on interleaves
Interleave, duration : 24 ms (0.60 video frame)
Interleave, preload duration : 524 ms
Writing library : LAME3.90.
Encoding settings : -m j -V 4 -q 2 -lowpass 18 --abr 160

BBC Design Rules (New Links)


Download:


Mirror:
Direct Download


Tags: Design


BBC Design Rules (New Links) Fast Download via Rapidshare Hotfile Fileserve Filesonic Megaupload, BBC Design Rules (New Links) Torrents and Emule Download or anything related.
Dear visitor, you went to website as unregistered user.
We encourage you to Register or Login to website under your name.

Add comments

Name:*
E-Mail:*
Comments:
Enter Code: *