Information of news
 (Votes #: 0)

Gerald Kein - Study Improvement And Test Anxiety

Category: Tutorial

Download Now

http://i82.fastpic.ru/big/2016/1018/f4/5cd25835fde9eff800fd15cdb48c93f4.jpg
Gerald Kein - Study Improvement And Test Anxiety
VHSRip | English | AVI + PDF Guide | 640 x 464 | XviD ~755 kbps | 29.970 fps
MP3 | 160 Kbps | 48.0 KHz | 2 channels | 01:45:05 | 698 MB
Genre: eLearning Video / Hypnosis, Self-Improvement

Learn To Help Students Of All Ages Using This Program!Learn how to eliminate test anxiety, how to improve student study habits, memoryretention and academic skills with the techniques presented in this workshop. In this step by step program, you can learn easy, practical and effective ways tohelp students, and anyone, when confronted with test anxiety to succeed withoutstress or fear.Included with this program is a time proven hypnosis script. Just reading it toyour clients while they are in the hypnotic state can create fantastic change!
General
Complete name : Gerald Kein - Study Improvement And Test Anxiety.avi
Format : AVI
Format/Info : Audio Video Interleave
File size : 698 MiB
Duration : 1h 45mn
Overall bit rate : 929 Kbps
Video
ID : 0
Format : MPEG-4 Visual
Format settings, BVOP : Yes
Format settings, QPel : No
Format settings, GMC : No warppoints
Format settings, Matrix : Default (H.263)
Codec ID : XVID
Codec ID/Hint : XviD
Duration : 1h 45mn
Bit rate : 755 Kbps
Width : 640 pixels
Height : 464 pixels
Display aspect ratio : 1.379
Frame rate : 29.970 fps
Color space : YUV
Chroma subsampling : 4:2:0
Bit depth : 8 bits
Scan type : Progressive
Compression mode : Lossy
Bits/(Pixel*Frame) : 0.085
Stream size : 567 MiB (81%)
Audio
ID : 1
Format : MPEG Audio
Format version : Version 1
Format profile : Layer 3
Mode : Joint stereo
Mode extension : MS Stereo
Codec ID : 55
Codec ID/Hint : MP3
Duration : 1h 45mn
Bit rate mode : Constant
Bit rate : 160 Kbps
Channel(s) : 2 channels
Sampling rate : 48.0 KHz
Compression mode : Lossy
Stream size : 120 MiB (17%)
Alignment : Split accross interleaves
Interleave, duration : 24 ms (0.72 video frame)


http://i84.fastpic.ru/big/2016/1018/80/9224d056b8c9e97cae38d7e5783a9f80.jpg

Download link:
Links are Interchangeable - Single Extraction - Premium is support resumable
Direct Download


Tags: Gerald, Improvement, Anxiety


Gerald Kein - Study Improvement And Test Anxiety Fast Download via Rapidshare Hotfile Fileserve Filesonic Megaupload, Gerald Kein - Study Improvement And Test Anxiety Torrents and Emule Download or anything related.
Dear visitor, you went to website as unregistered user.
We encourage you to Register or Login to website under your name.

Add comments

Name:*
E-Mail:*
Comments:
Enter Code: *