Information of news
 (Votes #: 0)

David Feinstein - The Healing Power of EFT and Energy Psychology

Category: Tutorial

Download Now

http://i78.fastpic.ru/big/2016/1018/94/63e05745a67d3e97542fcb400a9c6294.jpg
David Feinstein - The Healing Power of EFT and Energy Psychology
WEBRip | English | WMV | 320 x 240 | VC-1 ~300 kbps | 29.970 fps
WMA | 64 Kbps | 44.1 KHz | 2 channels | 03:19:03 | 1.08 GB
Genre: eLearning Video / Psychology, Self Improvement

The program consists of Basic Modules, Embedded Topics, Figures & Charts, and Video Clips-plus a Table of Contents. The set of 17 Basic Modules is the main portion of the program, containing the Interactive Questions and Practice Sessions.
ENERGY PSYCHOLOGY INTERACTIVE
RAPID INTERVENTIONS FOR LASTING CHANGE
by David Feinstein, Ph.D.
in Consultation with Fred P. Gallo, Ph.D., Donna Eden, and
The Energy Psychology Interactive Advisory Board
Version 4.0 2004
AN INTERACTIVE 40-HOUR COURSE FOR MASTERING
THE BASIC CONCEPTS AND TECHNIQUES OF ENERGY PSYCHOLOGY
Designed for Psychotherapists and Other Health Professionals
Involved in the Treatment of Emotional and Behavioral Conditions
also You can look my other last:


Complete name : David Feinstein - Introduction to Energy Psychology Part 1.wmv
Format : Windows Media
File size : 275 MiB
Duration : 1h 44mn
Overall bit rate mode : Constant
Overall bit rate : 368 Kbps
Maximum Overall bit rate : 372 Kbps
Movie name : Introduction to Energy Psychology Part 1
Encoded date : UTC 2008-03-15 10:10:33.140
Video
ID : 1
Format : VC-1
Format profile : MPLL
Codec ID : WMV3
Codec ID/Info : Windows Media Video 9
Codec ID/Hint : WMV3
Description of the codec : Windows Media Video 9
Duration : 1h 44mn
Bit rate mode : Constant
Bit rate : 300 Kbps
Width : 320 pixels
Height : 240 pixels
Display aspect ratio : 4:3
Frame rate : 29.970 fps
Nominal frame rate : 25.000 fps
Color space : YUV
Chroma subsampling : 4:2:0
Bit depth : 8 bits
Scan type : Progressive
Compression mode : Lossy
Bits/(Pixel*Frame) : 0.130
Stream size : 224 MiB (82%)
Language : English (IE)
Audio
ID : 2
Format : WMA
Format version : Version 2
Codec ID : 161
Codec ID/Info : Windows Media Audio
Description of the codec : Windows Media Audio 9 - 64 kbps, 44 kHz, stereo 1-pass CBR
Duration : 1h 44mn
Bit rate mode : Constant
Bit rate : 64.0 Kbps
Channel(s) : 2 channels
Sampling rate : 44.1 KHz
Bit depth : 16 bits
Stream size : 47.9 MiB (17%)
Language : English (IE)


http://i82.fastpic.ru/big/2016/1018/d2/c72cf0d06381ae923540b3e0036fcfd2.jpg

Download link:
Links are Interchangeable - Single Extraction - Premium is support resumable
Direct Download


Tags: Feinstein, Healing, Energy, Psychology


David Feinstein - The Healing Power of EFT and Energy Psychology Fast Download via Rapidshare Hotfile Fileserve Filesonic Megaupload, David Feinstein - The Healing Power of EFT and Energy Psychology Torrents and Emule Download or anything related.
Dear visitor, you went to website as unregistered user.
We encourage you to Register or Login to website under your name.

Add comments

Name:*
E-Mail:*
Comments:
Enter Code: *