Information of news
 (Votes #: 0)

TrueFire - Power Play: Minor with Robbie Calvo's

Category: Tutorial

Download Now

http://i78.fastpic.ru/big/2016/1016/18/033bed6bef429a1d28734a7fdaba0f18.jpg
TrueFire - Power Play: Minor with Robbie Calvo's
DATA-DVD | English | MP4 + PDF tabs + MP3 jam tracks | 864 x 486 | AVC ~768 kbps | 29.970 fps
AAC 110 Kbps 44.1 KHz | 2 channels | 100 minutes | 781 MB
Genre: eLearning Video / Guitar lesson

Contextual Learning Program for Improvisation & Solo Development Any musician that does it really well will tell you there's only one way to develop your improvisational skills - learn the theoretical fundamentals and then practice improvising, over a variety of changes, in a variety of keys and feels, as frequently as possible.
If you already have a grip on the fundamentals, and are fortunate enough to be able to jam live with other musicians several times a week, your improvisation chops will grow very quickly. But if you need a little help with the fundamentals, and don't have the chance to play out as much as you'd like to, then Robbie Calvo's Power Play Series will get there just as quick (maybe even a little quicker!).
Robbie's Power Play Series is a contextual hands-on learning system focused solely on the development of improvisational skills. No tedious theory or boring exercise to struggle through - you will play and improvise your way through the entire series.
Robbie's 6-minute improvisation workouts are the core learning tools of the series. Each workout features a rhythm track with a series of 8-bar progressions that change key four times throughout the workout,. The progressions and keys loop four times to net approximately six minutes of non-stop soloing and improvisation.
The Workouts are organized by tonalities (Minor Pentatonic, Dorian and Phrygian) and for each tonality, Robbie gives you a Road Map to follow which includes chord progression breakdowns, applicable scale shapes and patterns, fretboard navigation tips, "sweet note" resolutions, phrasing insight and a variety of other improvisational tips.
"I've designed the Power Play Series to emulate the real world experience of playing in a variety of keys and tonalities, across a variety of chord progressions. When jamming and improvising, you really never know what tune or progression might be called out, or even what to do over that progression. My 6-minute workouts will be challenging at first but after just a few practice sessions with them, the student will be amazed just how comfortable and creative they've become playing in multiple keys and feels all over the fretboard - on the fly!"
The Power Play Series consists of three modules..
Power Play: Major focuses on 3 Major Scale Types for improvisation - The Major Pentatonic Scale - The Major Scale (Ionian Mode) - The Lydian Scale.
You'll learn to apply and improvise with all 5 of your Major Pentatonic scale forms, 7 Major scale forms and 7 Lydian scale forms across the entire fingerboard.
Power Play: Minor focuses on 4 Minor Scale Types for Improvisation - The Minor Pentatonic Scale - The Dorian Mode - The Phrygian Mode - The Aeolian Mode (Natural Minor). You'll learn to apply and improvise with all 5 of your Minor Pentatonic scale forms, 7 Dorian, Phrygian and Aeolian scale forms across the entire fingerboard.
Power Play: Dominant focuses on 3 Scale Applications for Dominant chord progressions - The Major Pentatonic - The Blues Scale - The Mixolydian Mode. You'll learn to apply and improvise with all 5 of your Major Pentatonic Scale forms, 5 Blues Scale forms and 7 Mixolydian Scale forms across the entire fingerboard.
All of Robbie's improvisation performance examples, across the entire series of modules, are tabbed and notated for your reference purposes. Plus, you'll get all of the rhythm tracks to work with on your own as you learn to craft your own original improvisations.
Styles
Soloing
Applied Theory

Skill Level
Intermediate
Instrument
Electric Guitar
Guitar

Curriculum
Improvisation
Soloing
Tone
Scales
Chord Progressions
Music Theory

also You can look my other last:


General
Complete name : 7.mp4
Format : MPEG-4
Format profile : Base Media
Codec ID : isom
File size : 16.2 MiB
Duration : 2mn 31s
Overall bit rate mode : Variable
Overall bit rate : 893 Kbps
Writing application : Lavf55.19.104
Video
ID : 1
Format : AVC
Format/Info : Advanced Video Codec
Format profile : MainL3.1
Format settings, CABAC : Yes
Format settings, ReFrames : 4 frames
Codec ID : avc1
Codec ID/Info : Advanced Video Coding
Duration : 2mn 31s
Bit rate : 768 Kbps
Width : 864 pixels
Height : 486 pixels
Display aspect ratio : 16:9
Frame rate mode : Constant
Frame rate : 29.970 fps
Color space : YUV
Chroma subsampling : 4:2:0
Bit depth : 8 bits
Scan type : Progressive
Bits/(Pixel*Frame) : 0.061
Stream size : 14.0 MiB (87%)
Writing library : x264 core 119
Encoding settings : cabac=1 / ref=1 / deblock=1:0:0 / analyse=0x1:0x1 / me=dia / subme=1 / psy=1 / psy_rd=1.00:0.00 / mixed_ref=0 / me_range=16 / chroma_me=1 / trellis=0 / 8x8dct=0 / cqm=0 / deadzone=21,11 / fast_pskip=1 / chroma_qp_offset=0 / threads=4 / sliced_threads=0 / nr=0 / decimate=1 / interlaced=0 / bluray_compat=0 / constrained_intra=0 / bframes=3 / b_pyramid=2 / b_adapt=1 / b_bias=0 / direct=1 / weightb=1 / open_gop=0 / weightp=1 / keyint=250 / keyint_min=25 / scenecut=40 / intra_refresh=0 / rc=abr / mbtree=0 / bitrate=768 / ratetol=1.0 / qcomp=0.60 / qpmin=0 / qpmax=69 / qpstep=4 / ip_ratio=1.40 / pb_ratio=1.30 / aq=1:1.00
Audio
ID : 2
Format : AAC
Format/Info : Advanced Audio Codec
Format profile : LC
Codec ID : 40
Duration : 2mn 31s
Bit rate mode : Variable
Bit rate : 110 Kbps
Maximum bit rate : 192 Kbps
Channel(s) : 2 channels
Channel positions : Front: L R
Sampling rate : 44.1 KHz
Compression mode : Lossy
Stream size : 1.99 MiB (12%)


http://i78.fastpic.ru/big/2016/1016/a8/2612e5d0ad75be511939254054eed9a8.jpg

Download link:
Links are Interchangeable - Single Extraction - Premium is support resumable
Direct Download


Tags: TrueFire, Robbie


TrueFire - Power Play: Minor with Robbie Calvo's Fast Download via Rapidshare Hotfile Fileserve Filesonic Megaupload, TrueFire - Power Play: Minor with Robbie Calvo's Torrents and Emule Download or anything related.
Dear visitor, you went to website as unregistered user.
We encourage you to Register or Login to website under your name.

Add comments

Name:*
E-Mail:*
Comments:
Enter Code: *