Information of news
 (Votes #: 0)

Les Mills: BodyJam 77 - Master Class (2016)

Category: Tutorial

Download Now

Les Mills: BodyJam 77 - Master Class (2016)

Les Mills: BodyJam 77 - Master Class
DVDRip | English | AVI | 704 x 384 | XviD ~1699 kbps | 29.970 fps
MP3 | 128 Kbps | 48.0 KHz | 2 channels | 01:02:02 | 875 MB
Genre: eLearning Video / Fitness, Cardio Workout, Health

WHAT IS BODYJAM? Choreographed by Gandalf Archer-Mills in Auckland, New Zealand, BODYJAM is the ultimate combination of music and dance. Tracks that you love right now? They're in BODYJAM. That new style you've heard about? It was in BODYJAM last year. BODYJAM is available as a either a 55, 45 or 30-minute workout.
also You can look my other last:



General
Complete name : BODYJAM 77.avi
Format

: AVI
Format/Info : Audio Video Interleave
File size : 875 MiB
Duration : 1h 2mn
Overall bit rate : 1 973 Kbps
Writing application : VirtualDubMod 1.5.4.1 (build 2066/release)
Writing library : VirtualDubMod build 2066/release

Video
ID

: 0
Format

: MPEG-4 Visual
Format profile : Advanced [email protected]
Format settings, BVOP : 1
Format settings, QPel : No
Format settings, GMC : No warppoints
Format settings, Matrix : Custom
Codec ID : XVID
Codec ID/Hint : XviD
Duration : 1h 2mn
Bit rate : 1 699 Kbps
Width

: 704 pixels
Height

: 384 pixels
Display aspect ratio : 1.85:1
Frame rate : 29.970 fps
Color space : YUV
Chroma subsampling : 4:2:0
Bit depth : 8 bits
Scan type : Progressive
Compression mode : Lossy
Bits/(Pixel*Frame) : 0.210
Stream size : 754 MiB (86%)
Writing library : XviD 1.2.1 (UTC 2008-12-04)

Audio #1
ID

: 1
Format

: MPEG Audio
Format version : Version 1
Format profile : Layer 3
Mode

: Joint stereo
Mode extension : MS Stereo
Codec ID : 55
Codec ID/Hint : MP3
Duration : 1h 2mn
Bit rate mode : Constant
Bit rate : 128 Kbps
Channel(s) : 2 channels
Sampling rate : 48.0 KHz
Compression mode : Lossy
Stream size : 56.8 MiB (6%)
Alignment : Split accross interleaves
Interleave, duration : 33 ms (1.00 video frame)
Interleave, preload duratio : 500 ms
Writing library : LAME3.99.5

Audio #2
ID

: 2
Format

: MPEG Audio
Format version : Version 1
Format profile : Layer 3
Mode

: Joint stereo
Mode extension : MS Stereo
Codec ID : 55
Codec ID/Hint : MP3
Duration : 1h 2mn
Bit rate mode : Constant
Bit rate : 128 Kbps
Channel(s) : 2 channels
Sampling rate : 48.0 KHz
Compression mode : Lossy
Stream size : 56.8 MiB (6%)
Alignment : Split accross interleaves
Interleave, duration : 33 ms (1.00 video frame)
Interleave, preload duratio : 500 ms
Writing library : LAME3.99.5


Les Mills: BodyJam 77 - Master Class (2016)


Les Mills: BodyJam 77 - Master Class (2016)


Les Mills: BodyJam 77 - Master Class (2016)


DOWNLOAD:

Direct Download


Tags: BodyJam, Master


Les Mills: BodyJam 77 - Master Class (2016) Fast Download via Rapidshare Hotfile Fileserve Filesonic Megaupload, Les Mills: BodyJam 77 - Master Class (2016) Torrents and Emule Download or anything related.
Dear visitor, you went to website as unregistered user.
We encourage you to Register or Login to website under your name.

Add comments

Name:*
E-Mail:*
Comments:
Enter Code: *