Information of news
 (Votes #: 0)

Greg Habstritt - Time For It All Productivity Training

Category: Tutorial

Download Now

http://i84.fastpic.ru/big/2016/1014/9c/2f4f124e7662fff9117025d3a13a499c.jpg
Greg Habstritt - Time For It All Productivity Training
WEBRip | English | MP4 + MP3 + PDF Guides | 1264 x 720 | AVC ~723 kbps | 30 fps
AAC | 110 Kbps | 44.1 KHz | 2 channels | 5h 20mn | 2.07 GB
Genre: eLearning Video / Business, Mindset, Achievement

Entrepreneurs always list "not enough time" as one of the top 3 obstacles that holds them back from creating a breakthrough in their business. In this special internet training, you'll learn not only the biggest myths about "time management" that are hurting you, but you'll learn a very process to apply that is guaranteed to at least double your productivity. Imagine if you could have TWICE the time to accomplish your goals .. that's what this program gives you!
and You can watch my other last:


General
Complete name : TFIA-03-04-The-Focusing-Solution.mp4
Format : MPEG-4
Format profile : Base Media / Version 2
Codec ID : mp42
File size : 92.3 MiB
Duration : 15mn 24s
Overall bit rate mode : Variable
Overall bit rate : 838 Kbps
Encoded date : UTC 2011-12-17 00:24:46
Tagged date : UTC 2011-12-17 00:27:36
Writing application : HandBrake 0.9.5 2011010300
Video
ID : 1
Format : AVC
Format/Info : Advanced Video Codec
Format profile : MainL3.1
Format settings, CABAC : Yes
Format settings, ReFrames : 4 frames
Codec ID : avc1
Codec ID/Info : Advanced Video Coding
Duration : 15mn 24s
Bit rate : 723 Kbps
Nominal bit rate : 800 Kbps
Width : 1 264 pixels
Height : 720 pixels
Display aspect ratio : 16:9
Frame rate mode : Constant
Frame rate : 30.000 fps
Color space : YUV
Chroma subsampling : 4:2:0
Bit depth : 8 bits
Scan type : Progressive
Bits/(Pixel*Frame) : 0.026
Stream size : 79.6 MiB (86%)
Writing library : x264 core 112
Encoding settings : cabac=1 / ref=4 / deblock=1:0:0 / analyse=0x1:0x111 / me=hex / subme=6 / psy=1 / psy_rd=1.00:0.00 / mixed_ref=0 / me_range=16 / chroma_me=1 / trellis=0 / 8x8dct=0 / cqm=0 / deadzone=21,11 / fast_pskip=1 / chroma_qp_offset=-2 / threads=12 / sliced_threads=0 / nr=0 / decimate=1 / interlaced=0 / constrained_intra=0 / bframes=2 / b_pyramid=2 / b_adapt=1 / b_bias=0 / direct=1 / weightb=0 / open_gop=0 / weightp=2 / keyint=300 / keyint_min=30 / scenecut=40 / intra_refresh=0 / rc_lookahead=40 / rc=2pass / mbtree=1 / bitrate=800 / ratetol=1.0 / qcomp=0.60 / qpmin=3 / qpmax=51 / qpstep=4 / cplxblur=20.0 / qblur=0.5 / ip_ratio=1.40 / aq=1:1.00
Encoded date : UTC 2011-12-17 00:24:46
Tagged date : UTC 2011-12-17 00:27:36
Color range : Limited
Color primaries : BT.709
Transfer characteristics : BT.709
Matrix coefficients : BT.709
Audio
ID : 2
Format : AAC
Format/Info : Advanced Audio Codec
Format profile : LC
Codec ID : 40
Duration : 15mn 24s
Source duration : 15mn 24s
Bit rate mode : Variable
Bit rate : 110 Kbps
Maximum bit rate : 169 Kbps
Channel(s) : 2 channels
Channel positions : Front: L R
Sampling rate : 44.1 KHz
Compression mode : Lossy
Stream size : 12.1 MiB (13%)
Source stream size : 12.1 MiB (13%)
Title : Stereo
Language : English
Encoded date : UTC 2011-12-17 00:24:46
Tagged date : UTC 2011-12-17 00:27:36


http://i82.fastpic.ru/big/2016/1014/5f/1d63e160d099e8a7fae104d61c53c65f.jpg

Download link:
Links are Interchangeable - Single Extraction - Premium is support resumable
Direct Download


Tags: Habstritt, Productivity, Training


Greg Habstritt - Time For It All Productivity Training Fast Download via Rapidshare Hotfile Fileserve Filesonic Megaupload, Greg Habstritt - Time For It All Productivity Training Torrents and Emule Download or anything related.
Dear visitor, you went to website as unregistered user.
We encourage you to Register or Login to website under your name.

Add comments

Name:*
E-Mail:*
Comments:
Enter Code: *