Information of news
 (Votes #: 0)

UFO Messages for the Ground Crew - George Green

Category: Tutorial

Download Now

UFO Messages for the Ground Crew - George Green

UFO Messages for the Ground Crew - George Green
WEBRip | English | MP4 + PDF Guides | 854 x 480 | AVC ~517 kbps | 30 fps
AAC | 126 Kbps | 44.1 KHz | 2 channels | 10:30:25 | 2.02 GB
Genre: eLearning Video / Aliens, UFO

George Green's career extends from military service in the USAF (where he encountered alien disk craft in a remote hangar at Edwards AFB), through "playing monopoly" in corporate banking and large-scale construction, to working closely with the Pleiadians and other benevolent intelligences to "wake people up" in preparation for coming changes.
As George describes, he "used to run around with the big boys". He was asked to build an enemy prisoner-of-war camp in downtown Las Vegas - he refused - and was asked to be Finance Chairman for the Carter campaign, but declined after it became clear to him that the ethics of many of the senior players were heavily compromised. Shortly after he turned down the offer, his loans were called in and he lost many millions of dollars as finance was removed from dozens of major construction projects. Undeterred, George rebuilt his world and is in direct contact with Pleiadian intelligences and other beings. He has devoted his life to spreading the word that all is not as it seems.



General
Complete name : George Green - Truth Hour (480p).mp4
Format

: MPEG-4
Format profile : Base Media
Codec ID : isom
File size : 332 MiB
Duration : 1h 11mn
Overall bit rate : 651 Kbps
Writing application : Lavf56.4.101

Video
ID

: 1
Format

: AVC
Format/Info : Advanced Video Codec
Format profile : [email protected]
Format settings, CABAC : Yes
Format settings, ReFrames : 3 frames
Codec ID : avc1
Codec ID/Info : Advanced Video Coding
Duration : 1h 11mn
Bit rate : 517 Kbps
Width

: 854 pixels
Height

: 480 pixels
Display aspect ratio : 16:9
Frame rate mode : Constant
Frame rate : 30.000 fps
Color space : YUV
Chroma subsampling : 4:2:0
Bit depth : 8 bits
Scan type : Progressive
Bits/(Pixel*Frame) : 0.042
Stream size : 263 MiB (79%)

Audio
ID

: 2
Format

: AAC
Format/Info : Advanced Audio Codec
Format profile : LC
Codec ID : 40
Duration : 1h 11mn
Bit rate mode : Constant
Bit rate : 126 Kbps
Channel(s) : 2 channels
Channel positions : Front: L R
Sampling rate : 44.1 KHz
Compression mode : Lossy
Stream size : 64.0 MiB (19%)


UFO Messages for the Ground Crew - George Green

UFO Messages for the Ground Crew - George Green


UFO Messages for the Ground Crew - George Green


DOWNLOAD:

Direct Download


Tags: Messages, Ground, George


UFO Messages for the Ground Crew - George Green Fast Download via Rapidshare Hotfile Fileserve Filesonic Megaupload, UFO Messages for the Ground Crew - George Green Torrents and Emule Download or anything related.
Dear visitor, you went to website as unregistered user.
We encourage you to Register or Login to website under your name.

Add comments

Name:*
E-Mail:*
Comments:
Enter Code: *