Information of news
 (Votes #: 0)

O'Reilly Media - Understanding Spring Integration (2016)

Category: Tutorial

Download Now

O'Reilly Media - Understanding Spring Integration (2016)

O'Reilly Media - Understanding Spring Integration (2016)
WEBRip | English | MP4 + Project files | 1280 x 720 | AVC ~654 kbps | 29.970 fps
AAC | 128 Kbps | 44.1 KHz | 2 channels | 07:13:43 | 2.31 GB
Genre: eLearning Video / Development, Programming

Spring Integration is a Java-based tool designed to support information exchange between disparate systems. While APIs may be the standard for information exchange, there is no guarantee they will be the answer to every integration problem. Spring Integration provides a solution to integrating systems that use traditional web services, file transfers, and database sharing to exchange information. Intended for developers comfortable with Java, XML, and the Spring core, this course demonstrates how to leverage Spring Integration's messaging system and external adapters to satisfy the toughest system integration needs.
Discover the purpose of Spring Integration, its key concepts, and its messaging architecture
Learn to use Spring Integration to connect disparate systems in a maintainable and flexible way
Improve your understanding of the issues involved with system integration
Explore the multiple approaches Spring Integration uses for system integration
Enhance your knowledge of the solutions offered by the Spring framework

also You can watch my other last:



General
Complete name

: 56 - FTP Outbound Channel Adapter.mp4
Format
: MPEG-4
Format profile

: Base Media
Codec ID
: isom
File size
: 38.9 MiB
Duration
: 6mn 53s
Overall bit rate mode : Variable
Overall bit rate

: 790 Kbps
Writing application

: Lavf56.36.100

Video
ID : 2
Format
: AVC
Format/Info
: Advanced Video Codec
Format profile

: [email protected]
Format settings, CABAC : Yes
Format settings, ReFrames : 5 frames
Format settings, GOP : M=17, N=60
Codec ID
: avc1
Codec ID/Info

: Advanced Video Coding
Duration
: 6mn 53s
Bit rate
: 654 Kbps
Nominal bit rate

: 596 Kbps
Width
: 1 280 pixels
Height
: 720 pixels
Display aspect ratio : 16:9
Frame rate mode

: Constant
Frame rate
: 29.970 fps
Color space
: YUV
Chroma subsampling

: 4:2:0
Bit depth
: 8 bits
Scan type
: Progressive
Bits/(Pixel*Frame)

: 0.024
Stream size
: 32.2 MiB (83%)
Writing library

: x264 core 146 r2538 121396c
Encoding settings

: cabac=1 / ref=6 / deblock=1:0:0 / analyse=0x3:0x111 / me=hex / subme=7 / psy=1 / psy_rd=1.00:0.00 / mixed_ref=1 / me_range=16 / chroma_me=1 / trellis=1 / 8x8dct=1 / cqm=0 / deadzone=21,11 / fast_pskip=1 / chroma_qp_offset=-2 / threads=4 / lookahead_threads=1 / sliced_threads=0 / nr=0 / decimate=1 / interlaced=0 / bluray_compat=0 / stitchable=1 / constrained_intra=0 / bframes=16 / b_pyramid=1 / b_adapt=1 / b_bias=0 / direct=1 / weightb=1 / open_gop=0 / weightp=2 / keyint=60 / keyint_min=20 / scenecut=40 / intra_refresh=0 / rc_lookahead=40 / rc=abr / mbtree=1 / bitrate=596 / ratetol=1.0 / qcomp=0.60 / qpmin=10 / qpmax=50 / qpstep=4 / vbv_maxrate=2500 / vbv_bufsize=5000 / nal_hrd=none / filler=0 / ip_ratio=1.41 / aq=1:1.00

Audio
ID : 1
Format
: AAC
Format/Info
: Advanced Audio Codec
Format profile

: LC
Codec ID
: 40
Duration
: 6mn 53s
Duration_LastFrame

: -15ms
Bit rate mode

: Variable
Bit rate
: 128 Kbps
Maximum bit rate

: 2 500 Kbps
Channel(s)
: 2 channels
Channel positions

: Front: L R
Sampling rate

: 44.1 KHz
Compression mode

: Lossy
Delay relative to video : 67ms
Stream size
: 6.31 MiB (16%)


O'Reilly Media - Understanding Spring Integration (2016)


O'Reilly Media - Understanding Spring Integration (2016)


O'Reilly Media - Understanding Spring Integration (2016)


O'Reilly Media - Understanding Spring Integration (2016)


DOWNLOAD:

Direct Download


Tags: Reilly, Understanding, Spring, Integration


O'Reilly Media - Understanding Spring Integration (2016) Fast Download via Rapidshare Hotfile Fileserve Filesonic Megaupload, O'Reilly Media - Understanding Spring Integration (2016) Torrents and Emule Download or anything related.
Dear visitor, you went to website as unregistered user.
We encourage you to Register or Login to website under your name.

Add comments

Name:*
E-Mail:*
Comments:
Enter Code: *