Information of news
 (Votes #: 0)

Mariah Coz - Your First 1K

Category: Tutorial

Download Now

Mariah Coz - Your First 1K

Mariah Coz - Your First 1K
WEBRip | English | MP4 + PDF Guides + Project files | 1280 x 800 | AVC ~618 kbps | 23.976 fps
AAC | 128 Kbps | 44.1 KHz | 2 channels | 09:50:13 | 3.54 GB
Genre: eLearning Video / Business, Sales, Marketing

Get your first 1,000 Email Subscribers and Make Your First $1,000 From Your Blog In 60 Days Or Less! Fed up and frustrated with vague "strategies" and lame outdated "tips and tricks" about growing your audience and your blog?
You're in the right place. If you're frustrated with your list size, your blog's audience growth and your revenue numbers.
Your First $1K is your new best friend.
(you know, the one that calls you on your BS and won't let you waste your time on dumb stuff).
A lot of people think that building their list and making real, meaningful income from blogging is some mythical, magical secret. It's not.
It's about creating value, educating your readers, and getting in front of the right audience.

When you sign up for Your First 1K you get:

8 weeks of guided, step by step list building and blog monetization lessons. Everything has been tried and tested by myself and my thousands of students.
A 70-page printable workbook, progress trackers, daily calendars and resource guides.
The exact methods I use to grow my list and that took me from
The easiest, simplest way to create a product your growing audience will love and how to ship it fast.
Affordable and DIY solutions so you don't have to spend a bunch while you're still growing.
Ready-to-use templates, swipe copy, exact email sequences, EVERYTHING you need.
Simple but powerful strategies that work.

Your First $1K is FULL of step-by-step, actionable guides and strategies ready for you to implement and get real results.

Module 0: Email Foundations

Choosing your path: Simple or Pro
How to choose what platforms to use with pros and cons of each
Set up an account with your email provider system
Includes instruction on both ConvertKit and MailChimp

Module 1: Prepping Your Blog and Finding Your People

Create a simple landing page
Learn about different kinds of lead magnets
Create a lead magnet (with all types explained)
Choose and validate your first small product idea

Module 2: Blitz Versus Foundation Strategies

Discover the difference between Blitz and Foundation Strategies
Learn 8 Five-Minute Foundation Strategies
Implement 2-3 Five Minute Foundation strategies to kick start your list growth

Module 3: Upgrade Your Blog and Create a Simple Sales Page

Create simple content upgrades and install them on your site
Promote your content upgrades (aka getting traffic!)
Learn about the different types of products you can create and sell
Choose a name for your product or course
Create a simple pre-selling page

Module 4: New Strategies for Guest Blogging

Learn how to effectively pitch guest posts to anyone
Find your guest-posting opportunities with my own private resources
Land your first guest post and make it 100x more effective
Learn and implement 3 unique "guest posting" strategies that work like crazy and do NOT require you to write anything (yes, these are super cool!)

Module 5: List-Building & Pre-Selling with Webinars & Affiliates

What you need to know to do your first ever webinar
Choosing a topic, outlining your content, and timing everything
Set up your 3 webinars pages
Easy tech trainings on everything
Promote your webinar in 5 ways
Identify potential affiliates for your product

Module 6: Viral List Building and Pre-Launch

Create a viral giveaway that grows your list
Choose a prize and learn how to promote it effectively
All the trainings to set it up easily
Build anticipation for your upcoming product launch!

Module 7: Email Courses & Launch Sequences

Create a free email course using content you already have
Write your email course so that it doubles as a "nudge sequence" and funnel
Set it all up using simple tech trainings
Promoting your free course, which becomes your #1 list builder on autopilot
Discover the 3 different types of launch sequences
Choose the best sequence for YOUR product and write it using our simple templates.

Module 8: Preparing for Launch Traffic, Pre-Launch Planning, and Affiliate Packets

Optimize your site for increase in launch traffic
Prepare for your launch
Create and send affiliate packets
What you need to know before you launch (policies, refunds, and other things to prepare for!)

Module 9: Closing Your Launch and Post-Launch Planning

8 things you need to do after you launch to keep building your list every day
The difference between evergreen and open/close launches and how to choose
Review and assess your launch
How to bring in consistent sales after the launch

Value: $497
More Info: Salepage

and You can watch my other last:



General
Complete name

: Femtrepreneur.mp4
Format
: MPEG-4
Format profile

: Base Media
Codec ID
: isom
File size
: 134 MiB
Duration
: 24mn 48s
Overall bit rate

: 753 Kbps
Movie name
: Femtrepreneur
Tagged date
: UTC 2016-08-03 06:52:13
Writing application

: Lavf54.29.104

hdvd
: 0
stik
: 9
cnID
: 0

Video
ID : 1
Format
: AVC
Format/Info
: Advanced Video Codec
Format profile

: [email protected]
Format settings, CABAC : Yes
Format settings, ReFrames : 4 frames
Codec ID
: avc1
Codec ID/Info

: Advanced Video Coding
Duration
: 24mn 48s
Bit rate
: 618 Kbps
Nominal bit rate

: 575 Kbps
Width
: 1 280 pixels
Height
: 800 pixels
Display aspect ratio : 16:10
Frame rate mode

: Constant
Frame rate
: 23.976 fps
Color space
: YUV
Chroma subsampling

: 4:2:0
Bit depth
: 8 bits
Scan type
: Progressive
Bits/(Pixel*Frame)

: 0.025
Stream size
: 110 MiB (82%)
Writing library

: x264 core 129
Encoding settings

: cabac=1 / ref=3 / deblock=1:0:0 / analyse=0x3:0x113 / me=hex / subme=7 / psy=1 / psy_rd=1.00:0.00 / mixed_ref=1 / me_range=16 / chroma_me=1 / trellis=1 / 8x8dct=1 / cqm=0 / deadzone=21,11 / fast_pskip=1 / chroma_qp_offset=-2 / threads=6 / lookahead_threads=1 / sliced_threads=0 / nr=0 / decimate=1 / interlaced=0 / bluray_compat=0 / constrained_intra=0 / bframes=3 / b_pyramid=2 / b_adapt=1 / b_bias=0 / direct=1 / weightb=1 / open_gop=0 / weightp=2 / keyint=250 / keyint_min=23 / scenecut=40 / intra_refresh=0 / rc_lookahead=40 / rc=abr / mbtree=1 / bitrate=575 / ratetol=1.0 / qcomp=0.60 / qpmin=0 / qpmax=69 / qpstep=4 / ip_ratio=1.40 / aq=1:1.00

Audio
ID : 2
Format
: AAC
Format/Info
: Advanced Audio Codec
Format profile

: LC
Codec ID
: 40
Duration
: 24mn 48s
Duration_LastFrame

: 46ms
Bit rate mode

: Constant
Bit rate
: 128 Kbps
Channel(s)
: 2 channels
Channel positions

: Front: L R
Sampling rate

: 44.1 KHz
Compression mode

: Lossy
Delay relative to video : 83ms
Stream size
: 22.7 MiB (17%)

Menu
ID : 3
Codec ID
: text
Duration
: 24mn 48s
Encoded date

: UTC 2016-08-03 06:52:13
Tagged date
: UTC 2016-08-03 06:52:13


Mariah Coz - Your First 1K



Mariah Coz - Your First 1K



Mariah Coz - Your First 1K



DOWNLOAD:

Direct Download


Tags: Mariah


Mariah Coz - Your First 1K Fast Download via Rapidshare Hotfile Fileserve Filesonic Megaupload, Mariah Coz - Your First 1K Torrents and Emule Download or anything related.
Dear visitor, you went to website as unregistered user.
We encourage you to Register or Login to website under your name.

Add comments

Name:*
E-Mail:*
Comments:
Enter Code: *