Information of news
 (Votes #: 0)

Les Mills - Bodybalance 66

Category: Tutorial

Download Now

Les Mills - Bodybalance 66

Les Mills - Bodybalance 66
DVDRip | English | MP4 + WAV tracks | 960 x 540 | MPEG-4 ~3998 kbps | 29.970 fps
AAC | 128 Kbps | 48.0 KHz | 2 channels | 1h 04mn | 2.4 GB
Genre: eLearning Video / Fitness, Yoga, Pilates

Ideal for anyone and everyone, BODYBALANCE is the yoga-based class that will improve your mind, your body and your life. During BODYBALANCE an inspired soundtrack plays as you bend and stretch through a series of simple yoga moves and embrace elements of Tai Chi and Pilates. Breathing control is a part of all the exercises, and instructors will always provide options for those just getting started. You'll strengthen your entire body and leave the class feeling calm and centered. Happy.
Track List:

01. Broods - Bridges 4:02
02. Platinum Fortune - Listen to Soul, Listen to Blues 5:10
03. Colbie Caillat - Hold On 7:04
04. Jump Crusader - Say Something 3:52
05. Dashboard Confessional - Stolen 3:53
06. Flume & KT Tunstall - Holdin On & Come On, Get In 7:30
07. Benny Tipene - Make You Mine 3:04
08. Justin Timberlake - Spaceship Coupe 6:47
09. Ingrid Michaelson - Can't Help Falling In Love 3:13
10. Aeoliah - Angels of Presence 10:24

also You can look my other last:



General
Complete name

: Body Balance 66 HD.mp4
Format
: MPEG-4
Format profile

: Base Media
Codec ID
: isom
File size
: 1.86 GiB
Duration
: 1h 4mn
Overall bit rate mode : Variable
Overall bit rate

: 4 134 Kbps
Encoded date

: UTC 2014-09-18 15:56:34
Tagged date
: UTC 2014-09-18 15:56:42

Video
ID : 2
Format
: MPEG-4 Visual
Format settings, BVOP : Yes
Format settings, QPel : No
Format settings, GMC : No warppoints
Format settings, Matrix : Default (H.263)
Codec ID
: 20
Duration
: 1h 4mn
Bit rate mode

: Variable
Bit rate
: 3 998 Kbps
Maximum bit rate

: 6 815 Kbps
Width
: 960 pixels
Height
: 540 pixels
Display aspect ratio : 16:9
Frame rate mode

: Constant
Frame rate
: 29.970 fps
Color space
: YUV
Bit depth
: 8 bits
Scan type
: Progressive
Compression mode

: Lossy
Bits/(Pixel*Frame)

: 0.257
Stream size
: 1.80 GiB (97%)
Writing library

: Intel(R) MPEG-4 encoder based on Intel(R) IPP 6.1 build 137.20[6.1.137.763]
Language
: English

Audio
ID : 1
Format
: AAC
Format/Info
: Advanced Audio Codec
Format profile

: LC
Codec ID
: 40
Duration
: 1h 4mn
Bit rate mode

: Variable
Bit rate
: 128 Kbps
Maximum bit rate

: 225 Kbps
Channel(s)
: 2 channels
Channel positions

: Front: L R
Sampling rate

: 48.0 KHz
Compression mode

: Lossy
Stream size
: 59.2 MiB (3%)
Language
: English

Menu #1
00:00:00.000

: Chapter1
00:05:47.000

: Chapter2
00:06:37.000

: Chapter3
00:10:40.000

: Chapter4
00:15:55.000

: Chapter5
00:22:55.000

: Chapter6
00:26:55.000

: Chapter7
00:30:46.000

: Chapter8
00:33:22.000

: Chapter9
00:38:21.000

: Chapter10
00:41:24.000

: Chapter11
00:48:09.000

: Chapter12
00:51:26.000

: Chapter13

Menu #2
ID : 3
Codec ID
: text
Duration
: 51mn 26s
Encoded date

: UTC 2014-09-18 15:56:42
Tagged date
: UTC 2014-09-18 15:56:42
Bit rate mode

: VBR


Les Mills - Bodybalance 66



Les Mills - Bodybalance 66



Les Mills - Bodybalance 66



Les Mills - Bodybalance 66



Les Mills - Bodybalance 66


DOWNLOAD:

Direct Download


Tags: Bodybalance


Les Mills - Bodybalance 66 Fast Download via Rapidshare Hotfile Fileserve Filesonic Megaupload, Les Mills - Bodybalance 66 Torrents and Emule Download or anything related.
Dear visitor, you went to website as unregistered user.
We encourage you to Register or Login to website under your name.

Add comments

Name:*
E-Mail:*
Comments:
Enter Code: *