Information of news
 (Votes #: 0)

Java for Humans: Introduction to Programming with Cody Ray Miller (2016)

Category: Tutorial

Download Now

Java for Humans: Introduction to Programming with Cody Ray Miller (2016)

Java for Humans: Introduction to Programming (2016)
WEBRip | English | MP4 + Project files | 1280 x 720 | AVC ~95 kbps | 30 fps
AAC | 192 Kbps | 48.0 KHz | 2 channels | 9h 30mn | 1.42 GB
Genre: eLearning Video / Development, Programming

Start creating Java apps in minutes - no previous experience necessary. Java for Humans is a course designed with the complete beginner in mind. No previous programming experience is required. You - yes, you! - can start programming today. Whether you want to learn how to write code for fun, or to get ahead in your career, this course will help you achieve your goals.
All instruction is in plain, simple English. No technical jargon or complicated terms to memorize. Learn as you code! If you've ever struggled to figure out a programming textbook, this course is designed with you in mind.

I hated those huge, clunky books and you know what? They never helped me learn a programming language - no matter how hard I tried. What finally helped me was an instructor who explained everything to me in plain terms.

In this course, that's exactly what I'll be doing for you!

I cover everything you, as a beginner, need to know. You'll write 5 complete Java apps (and many smaller apps) along the way and we'll have FUN learning Java together.

Don't forget that there is a 100% moneyback guarantee on this course, so you risk absolutely nothing. Try the course out for a full 30 days and if you aren't completely satisfied (I'm confident you will be), you get every penny back.
You'll also receive free course updates. When something new is added to the course, you'll get it for free!
So, what are you waiting for? Start learning Java today. Enroll in this course and let's get going!

If you have any questions prior to enrollment, please send me a private message and I'd be happy to assist you in every way possible.

Cheers,
Cody

What are the requirements?

No previous experience with Java or any other programming language is required.

What am I going to get from this course?

Write basic Java applications, including GUI apps!
Read and understand Java code
Handle program errors
Package applications as JAR or EXE files

What is the target audience?

This course is designed with the complete beginner in mind!

also You can watch my other last:



General
Complete name

: 051 Creating the setup method.mp4
Format
: MPEG-4
Format profile

: Base Media / Version 2
Codec ID
: mp42
File size
: 38.0 MiB
Duration
: 18mn 26s
Overall bit rate mode : Variable
Overall bit rate

: 288 Kbps
Encoded date

: UTC 2016-09-15 19:59:14
Tagged date
: UTC 2016-09-15 19:59:14
Writing application

: Lavf53.32.100

Video
ID : 1
Format
: AVC
Format/Info
: Advanced Video Codec
Format profile

: [email protected]
Format settings, CABAC : Yes
Format settings, ReFrames : 4 frames
Codec ID
: avc1
Codec ID/Info

: Advanced Video Coding
Duration
: 18mn 26s
Bit rate
: 95.0 Kbps
Width
: 1 280 pixels
Height
: 720 pixels
Display aspect ratio : 16:9
Frame rate mode

: Constant
Frame rate
: 30.000 fps
Color space
: YUV
Chroma subsampling

: 4:2:0
Bit depth
: 8 bits
Scan type
: Progressive
Bits/(Pixel*Frame)

: 0.003
Stream size
: 12.6 MiB (33%)
Writing library

: x264 core 136
Encoding settings

: cabac=1 / ref=4 / deblock=1:0:0 / analyse=0x3:0x113 / me=umh / subme=7 / psy=0 / mixed_ref=1 / me_range=16 / chroma_me=1 / trellis=1 / 8x8dct=1 / cqm=0 / deadzone=21,11 / fast_pskip=0 / chroma_qp_offset=0 / threads=48 / lookahead_threads=5 / sliced_threads=0 / nr=0 / decimate=1 / interlaced=0 / bluray_compat=0 / constrained_intra=0 / bframes=16 / b_pyramid=2 / b_adapt=1 / b_bias=0 / direct=1 / weightb=1 / open_gop=0 / weightp=2 / keyint=300 / keyint_min=25 / scenecut=40 / intra_refresh=0 / rc=2pass / mbtree=0 / bitrate=95 / ratetol=1.0 / qcomp=0.60 / qpmin=10 / qpmax=51 / qpstep=4 / cplxblur=20.0 / qblur=0.5 / ip_ratio=1.40 / pb_ratio=1.30 / aq=1:1.00
Language
: English
Encoded date

: UTC 2016-09-15 19:59:14
Tagged date
: UTC 2016-09-16 10:03:35

Audio
ID : 2
Format
: AAC
Format/Info
: Advanced Audio Codec
Format profile

: LC
Codec ID
: 40
Duration
: 18mn 26s
Bit rate mode

: Variable
Bit rate
: 192 Kbps
Maximum bit rate

: 239 Kbps
Channel(s)
: 2 channels
Channel positions

: Front: L R
Sampling rate

: 48.0 KHz
Compression mode

: Lossy
Delay relative to video : 67ms
Stream size
: 25.0 MiB (66%)
Encoded date

: UTC 2016-09-15 19:59:14
Tagged date
: UTC 2016-09-16 10:03:35


Java for Humans: Introduction to Programming with Cody Ray Miller (2016)

Java for Humans: Introduction to Programming with Cody Ray Miller (2016)



Java for Humans: Introduction to Programming with Cody Ray Miller (2016)



Java for Humans: Introduction to Programming with Cody Ray Miller (2016)

DOWNLOAD:

Direct Download


Tags: Humans, Introduction, Programming, Miller


Java for Humans: Introduction to Programming with Cody Ray Miller (2016) Fast Download via Rapidshare Hotfile Fileserve Filesonic Megaupload, Java for Humans: Introduction to Programming with Cody Ray Miller (2016) Torrents and Emule Download or anything related.
Dear visitor, you went to website as unregistered user.
We encourage you to Register or Login to website under your name.

Add comments

Name:*
E-Mail:*
Comments:
Enter Code: *