Information of news
 (Votes #: 0)

Dan Dasilva - 100K BluePrint (Week 1-7)

Category: Tutorial

Download Now

Dan Dasilva - 100K BluePrint (Week 1-7)

Dan Dasilva - 100K BluePrint
WEBRip | English | MP4 + PDF Guides | 1280 x 694 | AVC ~542 kbps | 30 fps
AAC | 256 Kbps | 48.0 KHz | 2 channels | 25:35:37 | 11.52 GB
Genre: eLearning Video / Business, Sales, Marketing

Easily Create A Massive $100,000+ Per Year Business In The Next 90 Days... Or We Will Give You $300 Just For Trying. The 100k blueprint is a system that is backed with MILLIONS of dollars in student results. Aside from being one of the few systems in the world that ACTUALLY works, we are proud to be the first and only system that teach our students how to create a long term, passive business.
100K Blueprint is proven and stands the test of time. With over 6+ months of development we've crafted the first system that is proven to get YOU fast results without all the risk and VERY minimal effort.

Do you have 3-5 hours per day to set aside and work on your 100K Blueprint? If you do, we have students currently making anywhere from $1,000- $10,000 per day with only a few hours per day. You will have access to the same blueprint that that those students have access too, AND MORE.

They only had a FRACTION of the 100K Blueprint - you are going to have the whole thing. Imagine creating your first site... only a few hours of your time... 2 pages... or heck, even 1 page... and BOOM! Start sending traffic using out 100K Formula and you will start seeing REAL income flooding your accounts.

What this system will do for you is like none other.... just check out why we are different... This is the first ever step by step process that NO ONE has ever seen before.

Value: $997
More Info: Salepage

GeneralComplete name

      : 12-Confirming Your Niche.mp4Format
     : MPEG-4Format profile

     : Base Media / Version 2Codec ID
   : mp42File size
  : 99.9 MiBDuration
   : 17mn 17sOverall bit rate

   : 807 KbpsMovie name
: 12-Confirming Your NichePerformer
  Encoded date

       : UTC 2016-06-20 06:50:34Tagged date
: UTC 2016-07-19 20:07:29VideoID : 1Format
     : AVCFormat/Info
: Advanced Video CodecFormat profile

     : [email protected] settings, CABAC                   : YesFormat settings, ReFrames                : 5 framesCodec ID
   : avc1Codec ID/Info

      : Advanced Video CodingDuration
   : 17mn 17sBit rate
   : 542 KbpsWidth
      : 1 280 pixelsHeight
     : 694 pixelsDisplay aspect ratio                     : 1.85:1Frame rate mode

    : ConstantFrame rate
: 30.000 fpsColor space
: YUVChroma subsampling

: 4:2:0Bit depth
: 8 bitsScan type
  : ProgressiveBits/(Pixel*Frame)

: 0.020Stream size
: 67.1 MiB (67%)Writing library

    : x264 core 148 r11 3b70645Encoding settings

  : cabac=1 / ref=5 / deblock=1:0:0 / analyse=0x3:0x113 / me=umh / subme=8 / psy=1 / psy_rd=1.00:0.00 / mixed_ref=1 / me_range=16 / chroma_me=1 / trellis=1 / 8x8dct=1 / cqm=0 / deadzone=21,11 / fast_pskip=1 / chroma_qp_offset=-2 / threads=22 / lookahead_threads=3 / sliced_threads=0 / nr=0 / decimate=1 / interlaced=0 / bluray_compat=0 / stitchable=1 / constrained_intra=0 / bframes=3 / b_pyramid=2 / b_adapt=2 / b_bias=0 / direct=3 / weightb=1 / open_gop=0 / weightp=2 / keyint=infinite / keyint_min=30 / scenecut=40 / intra_refresh=0 / rc_lookahead=50 / rc=crf / mbtree=1 / crf=20.0 / qcomp=0.60 / qpmin=5 / qpmax=69 / qpstep=4 / vbv_maxrate=2750 / vbv_bufsize=7500 / crf_max=0.0 / nal_hrd=none / filler=0 / ip_ratio=1.40 / aq=1:1.00Encoded date

       : UTC 2016-06-20 06:50:34Tagged date
: UTC 2016-06-20 06:50:34Color primaries

    : BT.709Transfer characteristics                 : BT.709Matrix coefficients

: BT.709AudioID  
      : 2Format
     : AACFormat/Info
: Advanced Audio CodecFormat profile

     : LCCodec ID
  : 40Duration
   : 17mn 17sBit rate mode

      : ConstantBit rate
   : 256 KbpsChannel(s)
: 2 channelsChannel positions

  : Front: L RSampling rate

      : 48.0 KHzCompression mode

   : LossyDelay relative to video                  : 67msStream size
: 31.7 MiB (32%)Encoded date

       : UTC 2016-06-20 06:50:34Tagged date
: UTC 2016-06-20 06:50:34MenuID : 3Codec ID
   : textDuration
   : 17mn 17sEncoded date

       : UTC 2016-07-19 20:07:29Tagged date
: UTC 2016-07-19 20:07:29

Dan Dasilva - 100K BluePrint (Week 1-7)
Dan Dasilva - 100K BluePrint (Week 1-7)


Dan Dasilva - 100K BluePrint (Week 1-7)
Dan Dasilva - 100K BluePrint (Week 1-7)


DOWNLOAD:

Direct Download


Tags: Dasilva, BluePrint


Dan Dasilva - 100K BluePrint (Week 1-7) Fast Download via Rapidshare Hotfile Fileserve Filesonic Megaupload, Dan Dasilva - 100K BluePrint (Week 1-7) Torrents and Emule Download or anything related.
Dear visitor, you went to website as unregistered user.
We encourage you to Register or Login to website under your name.

Add comments

Name:*
E-Mail:*
Comments:
Enter Code: *