Information of news
 (Votes #: 0)

TrueFire - Jazz Comping Survival Guide with Fareed Haque's

Category: Tutorial

Download Now

http://i84.fastpic.ru/big/2016/1007/8b/8de3574c53e277acdded4039a8f5698b.jpg
TrueFire - Jazz Comping Survival Guide
DATA-DVD | English | FLV + PDF tabs + MP3 jam tracks | 640 x 360 | VP6 ~872 kbps | 29.970 fps
MP3 128 Kbps 44.1 KHz | 2 channels | 191 minutes | 1.46 GB
Genre: eLearning Video / Guitar lesson

All aboard! Fareed Haque's Jazz Comping Survival Guide is leaving the station. Throw your big jazz chord dictionaries out the window, forget everything you know about jazz comping, take a deep breath and buckle up - you're about to blaze through four years of undergraduate jazz guitar studies, two years of jazz grad school and a thousand gigs worth of experience in roughly four and half hours of interactive mind-meld with one of the most prolific, inventive, erudite and switched-on guitarists on the planet.
Guitar virtuoso and master educator Fareed Haque has worked with Sting, Dizzy Gillespie, Dave Holland, Joe Henderson, Joe Zawinul, Ramsey Lewis, Nigel Kennedy, Bob James, David Sanborn, many symphony orchestras and dozens of other well-known artists. He's performed all of the major guitar concertos and has had numerous modern works dedicated to him. Fareed currently holds an associate professorship in jazz and classical guitar studies at Northern Illinois University, tours extensively with his jam super-group, Garaj Mahal and has released nine recordings as a leader in various configurations.
"99.9% of the time, jazz guitarists are NOT hired for their solos, nor their amazing altered dominant crazy scales, but for their ability to groove, to swing, to lay down the chord voicings that are going to fill out an ensemble and frankly, make the leader sound good."
Fareed Haque's Jazz Comping Survival Guide is based on a very simple, yet far-reaching concept; building chords from the inside out. Your tutelage begins with basic guide tones and an intuitive system for building your chord vocabulary with extensions until you've rapidly acquired and have command of ALL of the chords and colors used by jazz guitarists.
Next stop; Fareed's Four principles of Chord Substitution, which he formulated to instinctively guide you to and through any modern jazz harmony you might encounter in four easy steps. Along the way, you'll develop a solid grip on tri-tone subs, leading chords, adding bass notes, extensions, inverting color tones, jazz blues harmony, various comping styles, and rhythmic patterns. You'll learn to apply these principles to all of the jazz progressions you'll explore to create unique and interesting accompaniments.
Fareed polishes off the journey with thirteen "Trade Secrets" that he developed over many years on the bandstand backing up vocalists and soloists; Slipping and Sliding, Tremolo, Walking Bass Lines, Bossa Comping, Guide Tones Combined with Melody, Horn Section Stabs and Imitation, Backgrounds, B3 Pedal Points, Harmonics, and Guide Tones Plus Three Extensions.
All in all, the Jazz Comping Survival Guide covers everything you need to know to get and keep the gig. Jump on board!
Styles
Rhythm
Jazz

Skill Level
Intermediate
Late Intermediate
Intermediate

Instrument
Electric Guitar
Guitar

Curriculum
Right-Hand Techniques
Groove
Comping
Chords
Left-Hand Techniques
Rhythm

also You can look my other last:


General
Complete name : fhjcsg_05_cd.flv
Format : Flash Video
File size : 9.32 MiB
Duration : 1mn 13s
Overall bit rate : 1 057 Kbps
Encoded date : Thu Nov 11 21:38:36 2010
Video
Format : VP6
Codec ID : 4
Duration : 1mn 13s
Bit rate : 872 Kbps
Width : 640 pixels
Height : 360 pixels
Display aspect ratio : 16:9
Frame rate mode : Constant
Frame rate : 29.970 fps
Bit depth : 8 bits
Bits/(Pixel*Frame) : 0.126
Stream size : 7.69 MiB (83%)
Audio
Format : MPEG Audio
Format version : Version 1
Format profile : Layer 3
Mode : Joint stereo
Codec ID : 2
Codec ID/Hint : MP3
Duration : 1mn 13s
Bit rate mode : Constant
Bit rate : 128 Kbps
Channel(s) : 2 channels
Sampling rate : 44.1 KHz
Compression mode : Lossy
Stream size : 1.13 MiB (12%)


http://i84.fastpic.ru/big/2016/1007/50/a638d0db6c47b3988c99bf86f65cf350.jpg

Download link:
Links are Interchangeable - Single Extraction - Premium is support resumable
Direct Download


Tags: TrueFire, Comping, Survival, Fareed


TrueFire - Jazz Comping Survival Guide with Fareed Haque's Fast Download via Rapidshare Hotfile Fileserve Filesonic Megaupload, TrueFire - Jazz Comping Survival Guide with Fareed Haque's Torrents and Emule Download or anything related.
Dear visitor, you went to website as unregistered user.
We encourage you to Register or Login to website under your name.

Add comments

Name:*
E-Mail:*
Comments:
Enter Code: *