Information of news
 (Votes #: 0)

Justin Cener - Dropship Bootcamp (2016)

Category: Tutorial

Download Now

http://i84.fastpic.ru/big/2016/1007/f3/10eca7c8d433796b3e75781cbc2fcef3.jpg
Justin Cener - Dropship Bootcamp
WEBRip | English | MP4 + Project files | 1920 x 1080 | AVC ~665 kbps | 30 fps
AAC | 235 Kbps | 48.0 KHz | 2 channels | ~21 hours | 5.17 GB
Genre: eLearning Video / Business, Sales, Marketing

EVERYTHING you need to succeed in the dropshipping business. Coaching Videos: Hours upon hours of in-depth coaching videos walking you through every facet of the dropshipping business. Modules include Niches, Product Research, Product Sourcing, Automated Fulfillment, Sources Besides AliExpress, Email Marketing, Scaling, Beginner Facebook Ads, Advanced Facebook Ads, and way, way more. Each module is filled with numerous, inclusive videos. I'm constantly adding new videos and added 4 just in the last week.
-Access To All Of My Webinar Replays: Any webinar even closely related to ecommerce, you're going to get unlimited replay access to via the Member's Area.
-Scaling Strategies: I could sell these alone for $50,000. These scaling strategies and rules are included in the bootcamp's members area and can single handedly change your entire business. These rules are the difference between $100 days and $1,000 days.
-Tools, Templates, & Ad Copy: Literally copy and paste my ad copy, product descriptions, ad templates, email copy, email templates, etc.
Value: $497
also You can watch my other last:


General
Complete name : 7. Adding A Product Manually.MP4
Format : MPEG-4
Format profile : Base Media / Version 2
Codec ID : mp42
File size : 85.1 MiB
Duration : 13mn 4s
Overall bit rate : 909 Kbps
Movie name : 7. Adding A Product Manually
Performer :
Encoded date : UTC 2016-07-01 01:14:17
Tagged date : UTC 2016-08-23 09:00:11
hdvd : 0
stik : 9
cnID : 0
Video
ID : 1
Format : AVC
Format/Info : Advanced Video Codec
Format profile : HighL4.0
Format settings, CABAC : Yes
Format settings, ReFrames : 4 frames
Codec ID : avc1
Codec ID/Info : Advanced Video Coding
Duration : 13mn 4s
Bit rate : 665 Kbps
Width : 1 920 pixels
Height : 1 080 pixels
Display aspect ratio : 16:9
Frame rate mode : Constant
Frame rate : 30.000 fps
Color space : YUV
Chroma subsampling : 4:2:0
Bit depth : 8 bits
Scan type : Progressive
Bits/(Pixel*Frame) : 0.011
Stream size : 62.2 MiB (73%)
Writing library : x264 core 148 r11 3b70645
Encoding settings : cabac=1 / ref=4 / deblock=1:0:0 / analyse=0x3:0x113 / me=umh / subme=8 / psy=1 / psy_rd=1.00:0.00 / mixed_ref=1 / me_range=16 / chroma_me=1 / trellis=1 / 8x8dct=1 / cqm=0 / deadzone=21,11 / fast_pskip=1 / chroma_qp_offset=-2 / threads=34 / lookahead_threads=5 / sliced_threads=0 / nr=0 / decimate=1 / interlaced=0 / bluray_compat=0 / stitchable=1 / constrained_intra=0 / bframes=3 / b_pyramid=2 / b_adapt=2 / b_bias=0 / direct=3 / weightb=1 / open_gop=0 / weightp=2 / keyint=infinite / keyint_min=30 / scenecut=40 / intra_refresh=0 / rc_lookahead=50 / rc=crf / mbtree=1 / crf=20.0 / qcomp=0.60 / qpmin=5 / qpmax=69 / qpstep=4 / vbv_maxrate=4950 / vbv_bufsize=13500 / crf_max=0.0 / nal_hrd=none / filler=0 / ip_ratio=1.40 / aq=1:1.00
Encoded date : UTC 2016-07-01 01:14:17
Tagged date : UTC 2016-07-01 01:14:17
Color primaries : BT.709
Transfer characteristics : BT.709
Matrix coefficients : BT.709
Audio
ID : 2
Format : AAC
Format/Info : Advanced Audio Codec
Format profile : LC
Codec ID : 40
Duration : 13mn 4s
Bit rate mode : Constant
Bit rate : 235 Kbps
Channel(s) : 2 channels
Channel positions : Front: L R
Sampling rate : 48.0 KHz
Compression mode : Lossy
Delay relative to video : 67ms
Stream size : 22.0 MiB (26%)
Encoded date : UTC 2016-07-01 01:14:17
Tagged date : UTC 2016-07-01 01:14:17
Menu
ID : 3
Codec ID : text
Duration : 13mn 4s
Encoded date : UTC 2016-08-23 09:00:11
Tagged date : UTC 2016-08-23 09:00:11


http://i85.fastpic.ru/big/2016/1007/ac/bd8e065755ce40c09326e1442e87fbac.jpg

Download link:
Links are Interchangeable - Single Extraction - Premium is support resumable
Direct Download


Tags: Justin, Dropship, Bootcamp


Justin Cener - Dropship Bootcamp (2016) Fast Download via Rapidshare Hotfile Fileserve Filesonic Megaupload, Justin Cener - Dropship Bootcamp (2016) Torrents and Emule Download or anything related.
Dear visitor, you went to website as unregistered user.
We encourage you to Register or Login to website under your name.

Add comments

Name:*
E-Mail:*
Comments:
Enter Code: *