Information of news
 (Votes #: 0)

Spencer Haws - Authority Machine (2016)

Category: Tutorial

Download Now
Spencer Haws - Authority Machine
WEBRip | English | MP4 + Project files | 1152 x 720 | AVC ~1259 kbps | 30 fps
AAC | 192 Kbps | 44.1 KHz | 2 channels | 06:55:01 | 1.76 GB
Genre: eLearning Video / Business, Sales, Marketing

Finally, Learn the complete system to create High End Authority Websites that rank in Google without second guessing yourself.
Here's Exactly What You'll Learn in Our 8 Week Training Program


Choosing a profitable niche for your website is both an art and a science. We'll help you avoid common mistakes so you can confidently select and add winning niches to your site.

We'll show you our exact strategies for optimizing and monetizing your site with Google Adsense, Amazon Associates and other affiliate programs that fit your topic.

You might say that our team wrote the book on keyword research, and we have the numbers to prove it. We'll show you how to find the best keywords that you can rank for and pull in tons of free search engine traffic.

Our templates are designed to be used by you and/or your outsourced writers. This ensures that articles, keyword usage, and links all get done correctly every time right from the very first time.

Your on-page SEO is critical to your success. Our spreadsheets and checklists will ensure you know how to produce perfect SEO friendly articles that Google loves.

Outsourcing your writing sounds simple, but getting top-notch content can actually be quite challenging. We'll share our standard operating procedure documentation that will help you source excellent content

Once you start growing a team, it's important that everyone is one the same page. We'll give you various templates and swipe files so you can successfully collaborate with your writers, virtual assistants, and anyone else you bring on board.
What Does the Training Cover?

Just so there are no surprises, here's a week by week breakdown of what you'll be learning and working on during our 8 week program. We've validated our program through past internships, which has allowed us to focus on topics that will give you the most benefit.
Weeks 1-2

You'll work on finding a primary seed keyword for your site, as well as a number of secondary keywords based on our proven keyword research strategies. This will help you set the direction and structure of your site.
Weeks 3 - 4

By the third week, you'll start creating and/or ordering your content which will be building blocks for your site. You'll also be building your site and making it look great.
Weeks 5 - 6

By week 5, you'll be publishing the content you've been working on and outsourcing. You'll also get your first linkable asset completed, which will be key for your link building efforts.
Weeks 7-8

As we move toward building links for your site, you'll start working on another link building strategy for your site. Then, you'll begin aggressively doing outreach for your site by contacting other bloggers. In addition, you'll get access to all of other link building strategies that will allow you to build even more links from high authority sites.
also You can watch my other last:

Complete name :11 - SEO-y type sites.mp4
Format : MPEG-4
Format profile : Base Media / Version 2
Codec ID : mp42
File size : 115 MiB
Duration : 11mn 3s
Overall bit rate mode : Variable
Overall bit rate : 1 456 Kbps
Movie name : 11 - SEO-y type sites
Encoded date : UTC 2016-06-08 17:43:28
Tagged date : UTC 2016-08-31 08:17:05
ID : 1
Format : AVC
Format/Info : Advanced Video Codec
Format profile : HighL3.1
Format settings, CABAC : Yes
Format settings, ReFrames : 1 frame
Format settings, GOP : M=1, N=60
Codec ID : avc1
Codec ID/Info : Advanced Video Coding
Duration : 11mn 3s
Bit rate : 1 259 Kbps
Maximum bit rate : 5 383 Kbps
Width : 1 152 pixels
Height : 720 pixels
Display aspect ratio : 16:10
Frame rate mode : Constant
Frame rate : 30.000 fps
Color space : YUV
Chroma subsampling : 4:2:0
Bit depth : 8 bits
Scan type : Progressive
Bits/(Pixel*Frame) : 0.051
Stream size : 99.6 MiB (86%)
Tagged date : UTC 2016-06-08 17:43:31
ID : 2
Format : AAC
Format/Info : Advanced Audio Codec
Format profile : LC
Codec ID : 40
Duration : 11mn 3s
Bit rate mode : Variable
Bit rate : 192 Kbps
Maximum bit rate : 201 Kbps
Channel(s) : 2 channels
Channel positions : Front: L R
Sampling rate : 44.1 KHz
Compression mode : Lossy
Stream size : 15.2 MiB (13%)
Title : IsoMedia File Produced by Google, 5-11-2011
Language : English
Encoded date : UTC 2016-06-08 17:43:30
Tagged date : UTC 2016-06-08 17:43:31
ID : 3
Codec ID : text
Duration : 11mn 3s
Encoded date : UTC 2016-08-31 08:17:05
Tagged date : UTC 2016-08-31 08:17:05

Download link:
Links are Interchangeable - Single Extraction - Premium is support resumable
Direct Download

Tags: Spencer, Authority, Machine

Spencer Haws - Authority Machine (2016) Fast Download via Rapidshare Hotfile Fileserve Filesonic Megaupload, Spencer Haws - Authority Machine (2016) Torrents and Emule Download or anything related.
Dear visitor, you went to website as unregistered user.
We encourage you to Register or Login to website under your name.

Add comments

Enter Code: *