Information of news
 (Votes #: 0)

John Nemo - LinkedIn Riches

Category: Tutorial

Download Now

http://i82.fastpic.ru/big/2016/1007/c0/a82eafed56468d6a32fd73ebbec379c0.jpg
John Nemo - LinkedIn Riches
WEBRip | English | MP4 | 1280 x 720 | AVC ~899 kbps | 23.976 fps
AAC | 72 Kbps | 48.0 KHz | 2 channels | 05:06:35 | 1.84 GB
Genre: eLearning Video / Business, Sales, Marketing

Small Business Owners, Coaches, Consultants, Trainers and Sales Executives ... Finally: A PROVEN System to Generate Sales Leads, Clients and Revenue using LinkedIn! If you've had a LinkedIn account for years but have never seen it generate any meaningful business or connections ... If you have hundreds (or even thousands) of LinkedIn connections but have yet to turn those connections into clients ...
If you send out scores of LinkedIn invites and messages but never seem to get a meaningful response ...
If you're tired of self-proclaimed LinkedIn Ninjas, Gurus and "Experts" who claim authority but have no results to back it up ...
Then this message is just for you!
Here's why...
LinkedIn has become the fastest, easiest and most effective place online to generate qualified sales leads, clients and revenue in the B2B marketplace.
My name is John Nemo, and what I'm about to show you is a proven system that has helped hundreds of professionals across countless industries generate nonstop sales leads, clients and revenue with LinkedIn since 2012.
Before I go further, however, I need to ask you something:
What if I Told You LinkedIn Could Help You Get ...

★ More Time?
★ More Income?
★ More Freedom?
What would you DO with all that extra time and income?
Would you travel the world? Spend more time with family? Volunteer?

Think about what your answer is, because I'm going to show you how LinkedIn can be the catalyst that gives you a new lease on your professional (and thereby personal) life.
Consider this:
What if You Could use LinkedIn to ...
Generate Scores of New Leads in Less Than 60 Minutes Per Day?
Have That List Feature Your EXACT and IDEAL Clients or Prospects?
Have Copy-and-Paste Scripts to Use When Engaging Those Prospects?
Have a Proven, Strategic and Step-by-Step Sales Funnel to Move Them Through?
Introducing ...
The LinkedIn Riches Premium Training
30 Video Training Modules
100 percent online / works on any device
6 Bonus Video Trainings & Expert Interviews
Copy-and-Paste Scripts and Messages
MP3 Audio files and Transcripts
What You'll Discover ...

How to Create a Client-Facing, Business-Attracting LinkedIn Profile.
How to Rank #1 in ANY Niche on the network.
How to Locate, Engage and Market to Your Ideal Prospects on LinkedIn ... FAST!
How to Create an Engaged, Thriving Community of Prospects Who WANT to Buy From You.
How to Write Irresistible Linkedin Invites and 1-on-1 Messages.
Fill-in-the-blank, Copy-and-Paste Message and Invite Templates for ANY Audience.
How to "Reverse-Engineer" Your Sales Pitches and Products into Client-Attracting Content.
How to Sort, Prioritize and Organize Top Prospects Automatically.
The Hidden Networking Play Almost NOBODY Utilizes on LinkedIn.
Exclusive Access to a Private, Members-Only Group of LinkedIn Riches Professionals.
Will the LinkedIn Riches Premium Training work in MY Niche?
In a word ... YES!
Hundreds of professionals across countless industries worldwide have utilized the LinkedIn Riches Premium Training since 2012.
Here's a SMALL sampling of some of the industries and niches LinkedIn Riches Premium Training students have come from:

★ ATM Machine Installation
★ Attorneys | Legal Services
★ Authors
★ Coaches | Coaching
★ Consultants | Consulting
★ Debt Collection
★ Entrepreneurs | Solopreneurs
★ Financial Services | Financial Planning
★ Freelancers (Writers, Designers, etc.)
★ Graphic Design
★ Healthcare | Medical
★ Investing | Investments
★ Marketing
★ MLM | Multi-Level Marketing | Network Marketing
★ Pest Control
★ Pharmaceutical
★ Public Relations
★ Real Estate Agents | Real Estate Investments
★ Sales | Sales Professionals | Sales Training
★ SEO | Search Engine Optimization
★ Small Business Owners
★ Speakers
★ Website Developers
You Should Purchase the LinkedIn Riches Premium Training if ...

You Want More Time, Income and Freedom in Your Life to Pursue Your Passions.
You Want a Proven System to Generate Nonstop Sales Leads, Clients and Revenue.
You Want to Replicate (or even Exceed) the Success of Hundreds of LinkedIn Riches Students.
You Want Battle-Tested, Pitch-Perfect Copy-and-Paste Scripts and Templates for LinkedIn Invitations and Messages.
also You can watch my other last:


General
Complete name : Module 20 - LinkedIn Riches.mp4
Format : QuickTime
Format/Info : Original Apple specifications
File size : 44.5 MiB
Duration : 6mn 19s
Overall bit rate mode : Variable
Overall bit rate : 983 Kbps
Movie name : Module 20 - LinkedIn Riches
Performer :
Encoded date : UTC 2015-10-20 02:14:55
Tagged date : UTC 2016-09-30 20:35:27
Writing application : Lavf53.29.100
Video
ID : 1
Format : AVC
Format/Info : Advanced Video Codec
Format profile : MainL4.0
Format settings, CABAC : Yes
Format settings, ReFrames : 7 frames
Codec ID : avc1
Codec ID/Info : Advanced Video Coding
Duration : 6mn 19s
Bit rate : 899 Kbps
Nominal bit rate : 1 000 Kbps
Width : 1 280 pixels
Height : 720 pixels
Display aspect ratio : 16:9
Frame rate mode : Constant
Frame rate : 23.976 fps
Color space : YUV
Chroma subsampling : 4:2:0
Bit depth : 8 bits
Scan type : Progressive
Bits/(Pixel*Frame) : 0.041
Stream size : 40.7 MiB (91%)
Writing library : x264 core 120 r2120 0c7dab9
Encoding settings : cabac=1 / ref=7 / deblock=1:0:0 / analyse=0x1:0x111 / me=umh / subme=8 / psy=0 / mixed_ref=1 / me_range=16 / chroma_me=1 / trellis=1 / 8x8dct=0 / cqm=0 / deadzone=21,11 / fast_pskip=1 / chroma_qp_offset=0 / threads=12 / sliced_threads=0 / nr=0 / decimate=1 / interlaced=0 / bluray_compat=0 / constrained_intra=0 / bframes=3 / b_pyramid=2 / b_adapt=2 / b_bias=0 / direct=3 / weightb=1 / open_gop=0 / weightp=2 / keyint=250 / keyint_min=25 / scenecut=40 / intra_refresh=0 / rc=2pass / mbtree=0 / bitrate=1000 / ratetol=1.0 / qcomp=0.60 / qpmin=10 / qpmax=51 / qpstep=4 / cplxblur=20.0 / qblur=0.5 / ip_ratio=1.40 / pb_ratio=1.30 / aq=1:1.00
Encoded date : UTC 2015-10-20 02:14:55
Tagged date : UTC 2015-10-20 02:14:55
Audio
ID : 2
Format : AAC
Format/Info : Advanced Audio Codec
Format profile : LC
Codec ID : 40
Duration : 6mn 19s
Bit rate mode : Variable
Bit rate : 72.0 Kbps
Maximum bit rate : 101 Kbps
Channel(s) : 2 channels
Channel positions : Front: L R
Sampling rate : 48.0 KHz
Compression mode : Lossy
Delay relative to video : 83ms
Stream size : 3.30 MiB (7%)
Encoded date : UTC 2015-10-20 02:14:55
Tagged date : UTC 2015-10-20 02:14:55
Menu
ID : 3
Codec ID : text
Duration : 6mn 19s
Encoded date : UTC 2016-09-30 20:35:27
Tagged date : UTC 2016-09-30 20:35:27


http://i82.fastpic.ru/big/2016/1007/70/a80c90e9e9a5d9f0693babc7d8d3b270.jpg

Download link:
Links are Interchangeable - Single Extraction - Premium is support resumable
Direct Download


Tags: LinkedIn, Riches


John Nemo - LinkedIn Riches Fast Download via Rapidshare Hotfile Fileserve Filesonic Megaupload, John Nemo - LinkedIn Riches Torrents and Emule Download or anything related.
Dear visitor, you went to website as unregistered user.
We encourage you to Register or Login to website under your name.

Add comments

Name:*
E-Mail:*
Comments:
Enter Code: *