Information of news
 (Votes #: 0)

Robin Sharma - Personal Mastery Academy

Category: Tutorial

Download Now
Robin Sharma - Personal Mastery Academy
WEBRip | English | FLV + PDF Guides | 640 x 358 | AVC ~600 kbps | 29.970 fps
AAC | 126 Kbps | 44.1 KHz | 2 channels | ~11 hours | 3.78 GB
Genre: eLearning Video / Self-Improvement

Many people from across the planet were very disappointed they missed getting a seat. So, I decided to record the entire event beautifully and build it into a world-class learning course called Personal Mastery Academy Online (PMAO) so you get to experience the feeling of being right there in the room with me + discover the most powerful information I have ever taught on mastering your mindset, performing at heroic levels and enjoying a life that you absolutely adore.
Normally, we would offer the complete Personal Mastery Academy Online program for $2000, but because you are a valued supporter and much-appreciated member of my community, we are giving you the entire video training course [which caused empires of transformation at the live event] for a Super Special Price of only $597!
Personal Mastery Academy Online includes:
Two full days of me walking you through brand-new models going deeper than I ever have gone before on my core ideas to help you revolutionize your mindset, x100 your confidence + fearlessness and learn how the most successful performers on the planet do what they do.
World-class learning modules + absolutely breakthrough tools that will cause exponential productivity, prosperity and impact in your life.
Over 1000 uncommon insights + daily routines + proven strategies to lead your field/own your craft/raise your power so you not only create a rare-air life but influence the world.
The exact workbook the entire group from 31 nations worked from including brand-new models never released before.
PDFs of the legendary materials I surprised my PMA audience with.
Select recordings from my exclusive VIP Day where only 30 change-makers attended.
In Personal Mastery Academy Online You Will Learn:
A Revolutionary Science-Based Approach to Making Your Life World-Class
Discover the latest science behind the powerful techniques for personal mastery.
How to Convert Failures into Fuel
Learn the mindsets for taking your personal failures and converting them into fuel to accelerate your success exponentially..
The 8 Rituals of A-Players
Discover the daily habits of top NBA/NFL/NHL sports stars + billionaire CEOs.
4 Extremely Valuable Models to Recode Your Thinking
Discover uber-valuable frameworks that explain how billionaires + titans think so you can leap from where you are to legendary and realize audacious ambitions.
How World-Class Producers Create x100 Results
How world-class producers use their routines + rituals + environment to own their fields.
The Two Types of Power
Discover the two types of power and how to leverage your inner hero to achieve epic output so you make history.
The Secrets of Developing a Team of Picassos
Learn the secrets of developing a world-class team to support your iconic mission.
also You can look my other last:

Complete name : Robin Sharma - Masterclass 5.flv
Format : Flash Video
File size : 433 MiB
Duration : 1h 22mn
Overall bit rate : 738 Kbps
Writing application : Wistia
Tagging application : Yet Another Metadata Injector for FLV - Version 2.0
Format : AVC
Format/Info : Advanced Video Codec
Format profile : HighL3.0
Format settings, CABAC : No
Format settings, ReFrames : 1 frame
Codec ID : 7
Duration : 1h 22mn
Bit rate : 600 Kbps
Width : 640 pixels
Height : 358 pixels
Display aspect ratio : 16:9
Frame rate mode : Constant
Frame rate : 29.970 fps
Color space : YUV
Chroma subsampling : 4:2:0
Bit depth : 8 bits
Scan type : Progressive
Bits/(Pixel*Frame) : 0.087
Stream size : 354 MiB (82%)
Writing library : x264 core 148 r2665 a01e339
Encoding settings : cabac=0 / ref=1 / deblock=1:0:0 / analyse=0x3:0x113 / me=hex / subme=7 / psy=1 / psy_rd=1.00:0.00 / mixed_ref=0 / me_range=16 / chroma_me=1 / trellis=1 / 8x8dct=1 / cqm=0 / deadzone=21,11 / fast_pskip=1 / chroma_qp_offset=-2 / threads=11 / lookahead_threads=1 / sliced_threads=0 / nr=0 / decimate=1 / interlaced=0 / bluray_compat=0 / constrained_intra=0 / bframes=0 / weightp=0 / keyint=250 / keyint_min=25 / scenecut=40 / intra_refresh=0 / rc_lookahead=40 / rc=abr / mbtree=1 / bitrate=600 / ratetol=1.0 / qcomp=0.60 / qpmin=0 / qpmax=69 / qpstep=4 / vbv_maxrate=10000 / vbv_bufsize=10000 / nal_hrd=none / filler=0 / ip_ratio=1.40 / aq=1:1.00
Format : AAC
Format/Info : Advanced Audio Codec
Format profile : LC
Codec ID : 10
Duration : 1h 22mn
Bit rate : 126 Kbps
Channel(s) : 2 channels
Channel positions : Front: L R
Sampling rate : 44.1 KHz
Compression mode : Lossy
Stream size : 77.7 MiB (18%)

Download link:
Links are Interchangeable - Single Extraction - Premium is support resumable
Direct Download

Tags: Sharma, Personal, Mastery, Academy

Robin Sharma - Personal Mastery Academy Fast Download via Rapidshare Hotfile Fileserve Filesonic Megaupload, Robin Sharma - Personal Mastery Academy Torrents and Emule Download or anything related.
Dear visitor, you went to website as unregistered user.
We encourage you to Register or Login to website under your name.

Add comments

Enter Code: *