Information of news
 (Votes #: 0)

David Zander - eCom Premier Academy

Category: Tutorial

Download Now
David Zander - eCom Premier Academy
WEBRip | English | MP4 + Project files | 1280 x 720 | AVC ~992 kbps | 30 fps
AAC | 128 Kbps | 48.0 KHz | 2 channels | ~14 hours | 8.26 GB
Genre: eLearning Video / Business, Sales, Marketing

How You Can Create A Secure Future For Yourself AND Your Family In 30 Short Days Starting From Absolute ZERO All You Need, Is To Get Started TODAY After You Join Our "EPA Family" & Just A Few Dollars To Spend On Ads
Secure a future for yourself and your family.
Build an eCommerce empire with certainty.
Beyond reselling Alibaba items.
Create a brand that's an ACTUAL ASSET.. Something you can pass along in your family.
All-Inclusive System.
Every single training, tool, app, and resource you need to have a successful store.
FREE ACCESS to our two U.S based fulfillment centers
Automatically links to your Shopify store & we ship your products every time you make a sale.
Now it IS your turn.
You simply need to know the steps and have the resources at your disposal.
And that's exactly that we're going to give you. - Every insight every tool. Every resourse - All inside eCom Premier Academy.
What You're Getting Inside eCom Premier Academy
How To Build Capital & EASILY Get Started
Meaning you won't invest large sums of your own money. We'll giveaway every secret we have about the traditional eCommerce business model so that you can enter, dominate quickly, and then be ready to move on to creating your own TRULY RELIABLE eCommerce empire and brand.
If you have never sold eCommerce before - This will get you up to speed. You have NOTHING to worry about.
Follow this, and you can profit DAY ONE.
How To Create Branded Products
You might just laugh at how easy it truly is - and you may even think, "I wish I did this years ago!" But don't kick yourself. As long as you do it now, you'll be in great shape for life.
This training will include:
- What type of products to brand
- Where to find them
- How to get your own branding put on them without a graphic designer
How To Turn One Branded Product Into A Company With Multiple Products - Effortlessly
It's as easy as saying three simple sentences. You can literally go from one product to a dozen in the span of an hour.
How To LICENSE Merchandise To Resell
Thought you had to give up your dreams of selling items that have a Trademark, like sports team names? HECK NO! While everyone else said, "don't do it!" we figured out a way how.We got licensing rights for Harry Potter in 24 hours! We'll show you how to do the same for anything you want!
How To Advertise on Facebook
These Facebook advertising techniques are POWERFUL and CHEAP. A lot of Facebook "training" is loaded with misinformation that will cost you money. Instead, you'll be able to have winning ads online in minutes just by copying what we do - that can mean virtually instant sales.
How To Advertise on Pinterest
Would you love to penetrate truly virgin territory? See how it feels to get in early - just like the early FB ads days? That's what we're doing with Pinterest - the results are INSANE and we'll show you how to get yours.
A Constant Stream of Case Studies
So you ALWAYS know what's working right now. We promise - you will never feel abandoned, you'll always have effective strategies to copy.
Guest Training From The Best of The Best
Nishant Bhardwaj, Matt Schmitt and Chris Record are just a few of the elites we have wrangled into spilling ALL of their top secrets to EEAP members. This is the equivalent of getting dozens of trainings in one on everything you need!
also You can watch my other last:

Complete name : 5.+How+to+Brand+Your+Own+Products.mp4
Format : MPEG-4
Format profile : Base Media / Version 2
Codec ID : mp42
File size : 102 MiB
Duration : 12mn 44s
Overall bit rate : 1 125 Kbps
Encoded date : UTC 2015-11-17 02:48:27
Tagged date : UTC 2015-11-17 02:48:27
ID : 1
Format : AVC
Format/Info : Advanced Video Codec
Format profile : BaselineL3.1
Format settings, CABAC : No
Format settings, ReFrames : 2 frames
Format settings, GOP : M=1, N=30
Codec ID : avc1
Codec ID/Info : Advanced Video Coding
Duration : 12mn 44s
Bit rate mode : Variable
Bit rate : 992 Kbps
Width : 1 280 pixels
Height : 720 pixels
Display aspect ratio : 16:9
Frame rate mode : Constant
Frame rate : 30.000 fps
Color space : YUV
Chroma subsampling : 4:2:0
Bit depth : 8 bits
Scan type : Progressive
Bits/(Pixel*Frame) : 0.036
Stream size : 90.4 MiB (88%)
Encoded date : UTC 2015-11-17 02:48:27
Tagged date : UTC 2015-11-17 02:48:27
ID : 2
Format : AAC
Format/Info : Advanced Audio Codec
Format profile : LC
Codec ID : 40
Duration : 12mn 44s
Bit rate mode : Constant
Bit rate : 128 Kbps
Channel(s) : 2 channels
Channel positions : Front: L R
Sampling rate : 48.0 KHz
Compression mode : Lossy
Stream size : 11.8 MiB (12%)
Encoded date : UTC 2015-11-17 02:48:27
Tagged date : UTC 2015-11-17 02:48:27
mdhd_Duration : 764203

Download link:
Links are Interchangeable - Single Extraction - Premium is support resumable
Direct Download

Tags: Zander, Premier, Academy

David Zander - eCom Premier Academy Fast Download via Rapidshare Hotfile Fileserve Filesonic Megaupload, David Zander - eCom Premier Academy Torrents and Emule Download or anything related.
Dear visitor, you went to website as unregistered user.
We encourage you to Register or Login to website under your name.

Add comments

Enter Code: *