Information of news
 (Votes #: 0)

Marko Djordjevic - Where I come from: a fresh approach to drumming (2007)

Category: Tutorial

Download Now

http://s2.1pic.org/files/2016/09/29/5d56c40d26cdf271465e.jpg
Marko Djordjevic - Where I come from: a fresh approach to drumming (2007)
DVD5 | English | VOB | 720x480 | MPEG2 5000 Kbps 29.970 fps | PCM 1536 Kbps 48.0 khz | ~75 min | 3.5 GB
Genre: Video Training, Music, Drums

Where I Come From is a video which unlocks the secrets to great technique as Marko Djordjevic takes you on a step by step journey through the basics of drumming with a fresh approach. The information will be useful to the beginner and seasoned pro alike, as Marko cleanly explains components which are absolutely essential for mastering the technical side of the instrument.
However, since technique is only a tool to be used for furthering musical vision, Marko teams up with a long time friend and bassist extraordinaire Janek Gwizdala to bring you track after track of inspiring and innovative music, composed by Marko for his group SVETI, which Phil Di Pietro of allaboutjazz fame calls 'a group of absolutely monster musicians'.
Approaches to composition and musicianship are discussed also, making Where I Come From a video all musicians benefit from! So take a trip to where Marko comes from, be ready to learn, get inspired, and be amazed by what you see and hear from one of the brightest stars on the music scene today.


General
Complete name : a fresh approach to drumming\VTS_04_1.VOB
Format : MPEG-PS
File size : 1 024 MiB
Duration : 21 min 28 s
Overall bit rate mode : Variable
Overall bit rate : 6 668 kb/s
Video
ID : 224 (0xE0)
Format : MPEG Video
Format version : Version 2
Format profile : MainMain
Format settings, BVOP : Yes
Format settings, Matrix : Custom
Format settings, GOP : M=3, N=15
Format settings, picture structure : Frame
Duration : 21 min 28 s
Bit rate mode : Variable
Bit rate : 5 000 kb/s
Maximum bit rate : 7 500 kb/s
Width : 720 pixels
Height : 480 pixels
Display aspect ratio : 4:3
Frame rate : 29.970 (30000/1001) FPS
Standard : NTSC
Color space : YUV
Chroma subsampling : 4:2:0
Bit depth : 8 bits
Scan type : Interlaced
Scan order : Bottom Field First
Compression mode : Lossy
Bits/(Pixel*Frame) : 0.483
Time code of first frame : 01:00:00;00
Time code source : Group of pictures header
GOP, Open/Closed : Closed
Stream size : 768 MiB (75%)
Color primaries : BT.601 NTSC
Transfer characteristics : BT.601
Matrix coefficients : BT.601
Audio
ID : 189 (0xBD)-160 (0xA0)
Format : PCM
Format settings, Endianness : Big
Format settings, Sign : Signed
Muxing mode : DVD-Video
Duration : 21 min 27 s
Bit rate mode : Constant
Bit rate : 1 536 kb/s
Channel(s) : 2 channels
Sampling rate : 48.0 kHz
Bit depth : 16 bits
Stream size : 236 MiB (23%)


http://s2.1pic.org/files/2016/09/29/5099e89d461c1fbe4b93.jpg

Download link:
uploadgig_com:
ziw6z.Marko.Djordjevic..Where.I.come.from.a.fresh.approach.to.drumming.2007.part1.rar
ziw6z.Marko.Djordjevic..Where.I.come.from.a.fresh.approach.to.drumming.2007.part2.rar
ziw6z.Marko.Djordjevic..Where.I.come.from.a.fresh.approach.to.drumming.2007.part3.rar
ziw6z.Marko.Djordjevic..Where.I.come.from.a.fresh.approach.to.drumming.2007.part4.rar
ziw6z.Marko.Djordjevic..Where.I.come.from.a.fresh.approach.to.drumming.2007.part5.rar
ziw6z.Marko.Djordjevic..Where.I.come.from.a.fresh.approach.to.drumming.2007.part6.rar

Ausfile.com:
ziw6z.Marko.Djordjevic..Where.I.come.from.a.fresh.approach.to.drumming.2007.part1.rar.html
ziw6z.Marko.Djordjevic..Where.I.come.from.a.fresh.approach.to.drumming.2007.part2.rar.html
ziw6z.Marko.Djordjevic..Where.I.come.from.a.fresh.approach.to.drumming.2007.part3.rar.html
ziw6z.Marko.Djordjevic..Where.I.come.from.a.fresh.approach.to.drumming.2007.part4.rar.html
ziw6z.Marko.Djordjevic..Where.I.come.from.a.fresh.approach.to.drumming.2007.part5.rar.html
ziw6z.Marko.Djordjevic..Where.I.come.from.a.fresh.approach.to.drumming.2007.part6.rar.html

Rapidgator:
ziw6z.Marko.Djordjevic..Where.I.come.from.a.fresh.approach.to.drumming.2007.part1.rar.html
ziw6z.Marko.Djordjevic..Where.I.come.from.a.fresh.approach.to.drumming.2007.part2.rar.html
ziw6z.Marko.Djordjevic..Where.I.come.from.a.fresh.approach.to.drumming.2007.part3.rar.html
ziw6z.Marko.Djordjevic..Where.I.come.from.a.fresh.approach.to.drumming.2007.part4.rar.html
ziw6z.Marko.Djordjevic..Where.I.come.from.a.fresh.approach.to.drumming.2007.part5.rar.html
ziw6z.Marko.Djordjevic..Where.I.come.from.a.fresh.approach.to.drumming.2007.part6.rar.html
Links are Interchangeable - Single Extraction - Premium is support resumable
Direct Download


Tags: Djordjevic, approach, drumming


Marko Djordjevic - Where I come from: a fresh approach to drumming (2007) Fast Download via Rapidshare Hotfile Fileserve Filesonic Megaupload, Marko Djordjevic - Where I come from: a fresh approach to drumming (2007) Torrents and Emule Download or anything related.
Dear visitor, you went to website as unregistered user.
We encourage you to Register or Login to website under your name.

Add comments

Name:*
E-Mail:*
Comments:
Enter Code: *