Information of news
 (Votes #: 0)

Awaken Healing Light - Guided Standing Meditation

Category: Tutorial

Download Now

http://s2.1pic.org/files/2016/09/29/db2601fee3601401c19a.jpg
Awaken Healing Light - Guided Standing Meditation
WEBRip | English | MPG | 352 x 240 | MPEG ~1134 kbps | 29.970 fps
MPEG Audio | 224 Kbps | 44.1 KHz | 2 channels | 01:02:16 | 621 MB
Genre: eLearning Video / Chi Energy Healing, Meditation, Instructional

Awaken Healing Light: Guide Standing Meditation Guided Standing Meditation is a full one-hour standing meditation, in which you orbit the healing light (your life force energy, or "Chi") up your spine and down the front of your body through specific energy pathways. It is considered to be the foundation of all higher Taoist meditations and practices. Master Chia guides you through all Seven Stages of the complete Microcosmic Orbit Meditation, as taught on the Awaken Healing Light Instruction and Theory DVD.
About the Actor

Master Mantak Chia is Chinese, born in Thailand. He is the direct successor to the teachings of Master Yi Eng, the Taoist White Cloud Hermit. Master Chia has openly brought these teachings to the West, instructing thousands of students a year in the U.S. and Europe. For this work he was named Chi Kung Teacher of the Year at the first International Congress of Chinese Medicine and Chi Kung.
Product Description

Guided Standing Meditation is a full one-hour standing meditation, in which you will orbit the healing light (your life force energy or "chi") up your spine and down the front of your body through specific energy pathways. It is considered to be the foundation of all higher Taoist meditations and practices.
Master Chia guides you through all Seven Stages of the Microcosmic Orbit Meditation, as taught on the Awaken Healing Light Instruction and Theory video. In the course of the meditation you will activate your internal energy draw on the energy of the Earth and the "chi" of the air, harmonize your sexual energy with your heart energy, connect with the energy of the stars and planets, and circulate all this "chi" through the major energy centers up your spine and down the front of your body. He also incorporates circulation of the sexual energy. as taught on the Healing Love video. In the course of the meditation you will use subtle breathing methods, and more powerful internal locking methods to lead the sexual energy up the spine to the brain. This tape takes you right into the classroom with Masters Mantak and Maneewan Chia at their annual summer retreat. You will follow the same step by step instruction that their students at the retreat receive. This video, shot in a high resolution format, combines rich detail and clear organization to give you a truly complete experience of the teachings.


General
Complete name : Mantak.Chia_Awaken.Healing.Light_Guided.Standing.Meditation.mpg
Format : MPEG-PS
File size : 621 MiB
Duration : 1h 2mn
Overall bit rate : 1 394 Kbps
Video
ID : 224 (0xE0)
Format : MPEG Video
Format version : Version 1
Format settings, BVOP : Yes
Format settings, Matrix : Default
Format settings, GOP : M=3, N=15
Duration : 1h 2mn
Bit rate : 1 134 Kbps
Width : 352 pixels
Height : 240 pixels
Display aspect ratio : 4:3
Frame rate : 29.970 fps
Standard : NTSC
Color space : YUV
Bit depth : 8 bits
Scan type : Progressive
Compression mode : Lossy
Bits/(Pixel*Frame) : 0.448
Time code of first frame : 00:00:00:00
Time code source : Group of pictures header
Stream size : 509 MiB (82%)
Audio
ID : 192 (0xC0)
Format : MPEG Audio
Format version : Version 1
Format profile : Layer 2
Duration : 1h 2mn
Bit rate mode : Constant
Bit rate : 224 Kbps
Channel(s) : 2 channels
Sampling rate : 44.1 KHz
Compression mode : Lossy
Stream size : 99.8 MiB (16%)


http://s2.1pic.org/files/2016/09/29/87536009b35258749dee.jpg

Download link:
Links are Interchangeable - Single Extraction - Premium is support resumable
Direct Download


Tags: Awaken, Healing, Guided, Standing, Meditation


Awaken Healing Light - Guided Standing Meditation Fast Download via Rapidshare Hotfile Fileserve Filesonic Megaupload, Awaken Healing Light - Guided Standing Meditation Torrents and Emule Download or anything related.
Dear visitor, you went to website as unregistered user.
We encourage you to Register or Login to website under your name.

Add comments

Name:*
E-Mail:*
Comments:
Enter Code: *