Information of news
 (Votes #: 0)

The Erskine Method for Drumset

Category: Tutorial

Download Now

http://s2.1pic.org/files/2016/09/29/1e0629a5ba9d2121051d.jpg
The Erskine Method for Drumset
DVDRip | English | AVI/XviD 29.970 fps 1200 Kbps | 640x480 | MP3 160 Kbps 48.0 khz | 2h 40mn | 1.54 GB
Genre: Video Training

The legendary Peter Erskine reveals the techniques and secrets behind his success in this unique Book and DVD set!. An eye-opening look into the mind of one of the world's greatest drums adds depth to every drummer's playing!
Features include drumset basics, the grip, chart reading and interpretation, over 300 beats to practice, warm-up exercises, and complete charts to play along with the DVD. Plus, tips and instructions for playing fills, comping, soloing, ensemble playing, and using brushes make this the perfect fit for drummers everywhere!
The included DVD features Peter demonstrating rhythm and techniques, talking about his playing philosophy, plus interviews with members of the Erskine Quartet!


General
Complete name : Peter Erskine - The Erskine Method for Drumset.avi
Format : AVI
Format/Info : Audio Video Interleave
File size : 1.54 GiB
Duration : 2 h 40 min
Overall bit rate : 1 374 kb/s
Video
ID : 0
Format : MPEG-4 Visual
Format profile : SimpleL3
Format settings, BVOP : No
Format settings, QPel : No
Format settings, GMC : No warppoints
Format settings, Matrix : Default (H.263)
Codec ID : XVID
Codec ID/Hint : XviD
Duration : 2 h 40 min
Bit rate : 1 200 kb/s
Width : 640 pixels
Height : 480 pixels
Display aspect ratio : 4:3
Frame rate : 29.970 (30000/1001) FPS
Color space : YUV
Chroma subsampling : 4:2:0
Bit depth : 8 bits
Scan type : Progressive
Compression mode : Lossy
Bits/(Pixel*Frame) : 0.130
Stream size : 1.34 GiB (87%)
Writing library : XviD 1.1.2 (UTC 2006-11-01)
Audio
ID : 1
Format : MPEG Audio
Format version : Version 1
Format profile : Layer 3
Mode : Joint stereo
Mode extension : MS Stereo
Codec ID : 55
Codec ID/Hint : MP3
Duration : 2 h 40 min
Source duration : 2 h 40 min
Bit rate mode : Constant
Bit rate : 160 kb/s
Channel(s) : 2 channels
Sampling rate : 48.0 kHz
Compression mode : Lossy
Stream size : 183 MiB (12%)
Alignment : Split accross interleaves
Interleave, duration : 24 ms (0.72 video frame)
Writing library : LAME3.98


http://s2.1pic.org/files/2016/09/29/6de973c7808752ce76f4.jpg

Download link:
Links are Interchangeable - Single Extraction - Premium is support resumable
Direct Download


Tags: Erskine, Method, Drumset


The Erskine Method for Drumset Fast Download via Rapidshare Hotfile Fileserve Filesonic Megaupload, The Erskine Method for Drumset Torrents and Emule Download or anything related.
Dear visitor, you went to website as unregistered user.
We encourage you to Register or Login to website under your name.

Add comments

Name:*
E-Mail:*
Comments:
Enter Code: *