Information of news
 (Votes #: 0)

Steve Gadd Master Series (2006)

Category: Tutorial

Download Now

http://s2.1pic.org/files/2016/09/29/09a44a3304713683138b.jpg
Steve Gadd Master Series (2006)
DVD5 | English | VOB | 720x480 | MPEG2 3440 Kbps 29.970 fps | AC3 192 Kbps 48.0 khz | 1h 35mn | 4.17 GB
Genre: Video Training

In 2006, the Zildjian company launched its third "Mission from Gadd" North American clinic tour, giving drummers across the country an opportunity to experience Steve Gadd's humility, generosity, and creative genius firsthand. On this DVD, Steve is featured in an intimate master drum class setting at the Manhattan School of Music in New York City, May 2006.
Longtime fans of Steve-as well as younger drummers just discovering him-will treasure Steve's wisdom and insights on a wide variety of topics: funk patterns, rudiments applied to the kit, playing with a click, tips for the studio, brush patterns, odd phrases, Mozambique/Latin ideas-it's all here.
The extensive question-and-answer segments allow Steve Gadd to discuss several of his legendary performances, including "Aja," "Nite Sprite," "Late in the Evening," and "50 Ways to Leave Your Lover." Steve also performs solo pieces illustrating the essential tools and techniques comprising his incredibly influential drum style and approach.


General
Complete name : Steve Gadd Master Series\VTS_01_1.VOB
Format : MPEG-PS
File size : 1 024 MiB
Duration : 38 min 38 s
Overall bit rate mode : Variable
Overall bit rate : 3 705 kb/s
Video
ID : 224 (0xE0)
Format : MPEG Video
Format version : Version 2
Format profile : MainMain
Format settings, BVOP : Yes
Format settings, Matrix : Custom
Format settings, GOP : Variable
Format settings, picture structure : Frame
Duration : 38 min 38 s
Bit rate mode : Variable
Bit rate : 3 440 kb/s
Maximum bit rate : 9 800 kb/s
Width : 720 pixels
Height : 480 pixels
Display aspect ratio : 4:3
Frame rate : 29.970 (30000/1001) FPS
Standard : NTSC
Color space : YUV
Chroma subsampling : 4:2:0
Bit depth : 8 bits
Scan type : Interlaced
Scan order : Top Field First
Compression mode : Lossy
Bits/(Pixel*Frame) : 0.332
Time code of first frame : 00:59:58;20
Time code source : Group of pictures header
GOP, Open/Closed : Open
GOP, Open/Closed of first frame : Closed
Stream size : 951 MiB (93%)
Audio
ID : 189 (0xBD)-128 (0x80)
Format : AC-3
Format/Info : Audio Coding 3
Mode extension : CM (complete main)
Format settings, Endianness : Big
Muxing mode : DVD-Video
Duration : 38 min 37 s
Bit rate mode : Constant
Bit rate : 192 kb/s
Channel(s) : 2 channels
Channel positions : Front: L R
Sampling rate : 48.0 kHz
Frame rate : 31.250 FPS (1536 spf)
Compression mode : Lossy
Stream size : 53.1 MiB (5%)


http://s2.1pic.org/files/2016/09/29/1c7530345c1163520647.jpg

Download link:
Links are Interchangeable - Single Extraction - Premium is support resumable
Direct Download


Tags: Master, Series


Steve Gadd Master Series (2006) Fast Download via Rapidshare Hotfile Fileserve Filesonic Megaupload, Steve Gadd Master Series (2006) Torrents and Emule Download or anything related.
Dear visitor, you went to website as unregistered user.
We encourage you to Register or Login to website under your name.

Add comments

Name:*
E-Mail:*
Comments:
Enter Code: *