Information of news
 (Votes #: 0)

Perry Marshalls - AutoResponder Boot Camp

Category: Tutorial

Download Now
Perry Marshalls - AutoResponder Boot Camp
WEBRip | English | MP4 + Project files | 640 x 480 | MPEG-4 ~1000 kbps | 29.970 fps
AAC | 157 Kbps | 48.0 KHz | 2 channels | 12:17:10 | 5.96 GB
Genre: eLearning Video / Business, Sales, Marketing

Does it seem like the performance of your promotions is declining in effectiveness no matter how great the sales copy is, and how great your promotion? You're not alone. The economy is in the tank, trust is at an all-time low, and people are hanging on to their wallets like never before. If you're going to prosper in this economy, it's going to take more than a great sales letter or promotion. It demands a strategy where, no matter how bad things are, your customers gladly look forward to receiving your emails every single day. Those emails now need to work like a tractor beam, tirelessly and irresistibly drawing them towards you. Consider the power of a well-engineered Autoresponder system.
Here's what you get:
Three Autoresponder training modules, where I de-construct my entire autoresponder strategy
10 email persuasion templates
A swipe file of 175 emails from my own Autoresponder system, with permission to modify them for use in your own maze
Bonus course - Invisible Streams: How to Segment Your List for Greater Profit
DVDs recording of my one-of-a-kind Autoresponder Seminar
Guarantee for Bronze: If you use the 10 templates to create 10 autoresponders and your existing sales funnel doesn't convert at least 30% higher within 90 days of implementing the new messages, then send us your results, return the Autoresponder Seminar DVD's and we'll issue a refund for the entire cost of the Bronze package.
Who this is for?
Autoresponder Boot Camp is designed for Entrepreneurs, Business Owners, and Sales People, who would like to deepen and tighten their relationship with their customers and prospects. Helping automate their communication with their subscribers and make automated sales.
More Info:
Value: $1895

also You can watch my other last:

Complete name : 6 The_System_small.mp4
Format : MPEG-4
Format profile : Base Media / Version 2
Codec ID : mp42
File size : 971 MiB
Duration : 1h 57mn
Overall bit rate mode : Variable
Overall bit rate : 1 160 Kbps
Encoded date : UTC 2010-12-01 17:16:50
Tagged date : UTC 2010-12-01 17:30:09
Writing application : HandBrake 0.9.4 2009112300
ID : 1
Format : MPEG-4 Visual
Format profile : SimpleL1
Format settings, BVOP : No
Format settings, QPel : No
Format settings, GMC : No warppoints
Format settings, Matrix : Default (H.263)
Codec ID : 20
Duration : 1h 57mn
Duration_FirstFrame : 100ms
Bit rate mode : Variable
Bit rate : 1 000 Kbps
Maximum bit rate : 3 047 Kbps
Width : 640 pixels
Height : 480 pixels
Display aspect ratio : 4:3
Frame rate mode : Constant
Frame rate : 29.970 fps
Color space : YUV
Chroma subsampling : 4:2:0
Bit depth : 8 bits
Scan type : Progressive
Compression mode : Lossy
Bits/(Pixel*Frame) : 0.109
Stream size : 837 MiB (86%)
Writing library : Lavc52.30.1
Encoded date : UTC 2010-12-01 17:16:50
Tagged date : UTC 2010-12-01 17:30:09
Color primaries : BT.601 NTSC
Transfer characteristics : BT.709
Matrix coefficients : BT.601
ID : 2
Format : AAC
Format/Info : Advanced Audio Codec
Format profile : LC
Codec ID : 40
Duration : 1h 57mn
Bit rate mode : Variable
Bit rate : 157 Kbps
Maximum bit rate : 201 Kbps
Channel(s) : 2 channels
Channel positions : Front: L R
Sampling rate : 48.0 KHz
Compression mode : Lossy
Stream size : 131 MiB (14%)
Language : English
Encoded date : UTC 2010-12-01 17:16:50
Tagged date : UTC 2010-12-01 17:30:09

Download link:
Links are Interchangeable - Single Extraction - Premium is support resumable
Direct Download

Tags: Marshalls, AutoResponder

Perry Marshalls - AutoResponder Boot Camp Fast Download via Rapidshare Hotfile Fileserve Filesonic Megaupload, Perry Marshalls - AutoResponder Boot Camp Torrents and Emule Download or anything related.
Dear visitor, you went to website as unregistered user.
We encourage you to Register or Login to website under your name.

Add comments

Enter Code: *