Information of news
 (Votes #: 0)

Lick Library - Quick Licks Dimebag Darrell

Category: Tutorial

Download Now

http://s2.1pic.org/files/2016/09/27/6a3c7d5f1a80351ab84b.jpg
Lick Library - Quick Licks Dimebag Darrell
DVD5 | English | VIDEO_TS | 720 x 576 | MPEG2 ~4004 kbps | 25 fps
AC-3 192 Kbps 48.0 KHz | 2 channels | 1h 36mn | 2.44 GB
Genre: eLearning Video / Guitar lesson

Learn killer metal licks in the style of Dimebag Darrell, metal guitar legend and founder member of Pantera. Also includes a metal guitar jam track! Lessons by Andy James.
General
Complete name : VTS_05_1.VOB
Format : MPEG-PS
File size : 343 MiB
Duration : 11mn 11s
Overall bit rate mode : Variable
Overall bit rate : 4 281 Kbps
Video
ID : 224 (0xE0)
Format : MPEG Video
Format version : Version 2
Format profile : MainMain
Format settings, BVOP : Yes
Format settings, Matrix : Custom
Format settings, GOP : M=3, N=15
Duration : 11mn 11s
Bit rate mode : Variable
Bit rate : 4 004 Kbps
Maximum bit rate : 7 000 Kbps
Width : 720 pixels
Height : 576 pixels
Display aspect ratio : 16:9
Frame rate : 25.000 fps
Standard : PAL
Color space : YUV
Chroma subsampling : 4:2:0
Bit depth : 8 bits
Scan type : Interlaced
Scan order : Bottom Field First
Compression mode : Lossy
Bits/(Pixel*Frame) : 0.386
Time code of first frame : 00:00:00:00
Time code source : Group of pictures header
Stream size : 321 MiB (94%)
Audio
ID : 189 (0xBD)-128 (0x80)
Format : AC-3
Format/Info : Audio Coding 3
Mode extension : CM (complete main)
Format settings, Endianness : Big
Muxing mode : DVD-Video
Duration : 11mn 11s
Bit rate mode : Constant
Bit rate : 192 Kbps
Channel(s) : 2 channels
Channel positions : Front: L R
Sampling rate : 48.0 KHz
Bit depth : 16 bits
Compression mode : Lossy
Stream size : 15.4 MiB (4%)
Menu


http://s2.1pic.org/files/2016/09/27/8499d644043aebbf56e3.jpg

Download link:
Links are Interchangeable - Single Extraction - Premium is support resumable
Direct Download


Tags: Library, Dimebag, Darrell


Lick Library - Quick Licks Dimebag Darrell Fast Download via Rapidshare Hotfile Fileserve Filesonic Megaupload, Lick Library - Quick Licks Dimebag Darrell Torrents and Emule Download or anything related.
Dear visitor, you went to website as unregistered user.
We encourage you to Register or Login to website under your name.

Add comments

Name:*
E-Mail:*
Comments:
Enter Code: *