Information of news
 (Votes #: 0)

Ben Adkins - Living Emails (Complete)

Category: Tutorial

Download Now

Ben Adkins - Living Emails (Complete)

Ben Adkins - Living Emails
WEBRip | English | MP4 + PDF Guides | 1152 x 720 | MPEG-4 ~872 kbps | 14.985 fps
AAC | 66.2 Kbps | 22.05 KHz | 2 channels | 12:04:59 | 1.72 GB
Genre: eLearning Video / Business, Sales, Marketing

Ready to Start Using Email Marketing To Build your Business on Autopilot? The Living Emails Program will Show you How to Build a Smart Email Marketing Program that will literally work on Autopilot for your Business 24/7.
Session 1: The Core Creation Formula

Zero in on your Customers so you Can Sell More of your Product or Service
In this section we're going to show you exactly what questions you need to answer to zero in on your target market and get you ready to create the material that will help build trust and convert more buyers.

Session 2: Trust Building Deliverables

Learn how to Create the Material that will brand you as an Expert in your Industry and power you email marketing.
I give you the templates and show you exactly how to create content that will sell for you while you sleep. This material is what will help create customers and support your Living Emails Campaigns.

Session 3: Connections and Tracking

Take our Proven Active Campaign Email Automation "Guts" for your own and learn how to track and tag everything.
Inside of this section I'll show you how to setup the guts of your Living Email Campaigns and give you all of our pages, funnels, and tagging structures. After we get done with this section we'll be ready to insert our Proven Living Email Scripts.

Session 4: The Living Email Formulas and Scripts

Use our Proven Email Scripts and Get Ready to Convert and Tag like a Pro
Inside of this section I'll hand over our private email scripts that you can plug into your marketing and use them to sell more and prep your subscribers for powerful promotions using the power of tagging.

Session 5: Driving Targeted Traffic

Get the Right Traffic into your Living Email System and Power Your Business
Inside of this section I'll show you how to drive traffic from the following sources:

1) Complimentary Business Partnerships
2) Solo Ad Traffic
3) Facebook Ads
4) Targeted Paid Media

More Info: Salepage
Value: $997


also You can watch my other last:



General
Complete name

: 11 - What's Next.mp4
Format
: MPEG-4
Format profile

: Base Media
Codec ID
: isom
File size
: 7.10 MiB
Duration
: 1mn 3s
Overall bit rate mode : Variable
Overall bit rate

: 942 Kbps
Writing application

: Lavf52.32.0

Video
ID : 1
Format
: MPEG-4 Visual
Format profile

: [email protected]
Format settings, BVOP : No
Format settings, QPel : No
Format settings, GMC : No warppoints
Format settings, Matrix : Default (H.263)
Codec ID
: 20
Duration
: 1mn 3s
Bit rate
: 872 Kbps
Width
: 1 152 pixels
Height
: 720 pixels
Display aspect ratio : 16:10
Frame rate mode

: Constant
Frame rate
: 14.985 fps
Color space
: YUV
Chroma subsampling

: 4:2:0
Bit depth
: 8 bits
Scan type
: Progressive
Compression mode

: Lossy
Bits/(Pixel*Frame)

: 0.070
Stream size
: 6.58 MiB (93%)
Writing library

: Lavc52.22.3

Audio
ID : 2
Format
: AAC
Format/Info
: Advanced Audio Codec
Format profile

: LC
Codec ID
: 40
Duration
: 1mn 3s
Bit rate mode

: Variable
Bit rate
: 66.2 Kbps
Channel(s)
: 2 channels
Channel positions

: Front: L R
Sampling rate

: 22.05 KHz
Compression mode

: Lossy
Stream size
: 517 KiB (7%)


Ben Adkins - Living Emails (Complete)



Ben Adkins - Living Emails (Complete)



Ben Adkins - Living Emails (Complete)

Ben Adkins - Living Emails (Complete)

DOWNLOAD:

Direct Download


Tags: Adkins, Living, Emails, Complete


Ben Adkins - Living Emails (Complete) Fast Download via Rapidshare Hotfile Fileserve Filesonic Megaupload, Ben Adkins - Living Emails (Complete) Torrents and Emule Download or anything related.
Dear visitor, you went to website as unregistered user.
We encourage you to Register or Login to website under your name.

Add comments

Name:*
E-Mail:*
Comments:
Enter Code: *