Information of news
 (Votes #: 0)

How to Locate Acupuncture Points

Category: Tutorial

Download Now

http://s2.1pic.org/files/2016/09/25/d39013ee69d23cb661dd.jpg
How to Locate Acupuncture Points
DVDRip | English | AVI | 640 x 360 | XviD ~1093 kbps | 25 fps
MP3 | 128 Kbps | 44.1 KHz | 2 channels | 03:48:15 | 1.79 GB
Genre: eLearning Video / Health, Medicine

HOW TO LOCATE ACUPUNCTURE POINTS - THE DEFINITIVE DVD provides detailed instruction on the how to quickly and accurately find over 390+ of most commonly used acupoints on a live model. Presented by Paul Johnson and Tessa Whittaker,- licensed acupuncturists and lecturers at the London College of Traditional Acupuncture and Oriental Medicine, This unique video tutorial has several key features include; * Complete coverage of the 12 primary channels, the conception and governing vessels, and some of the most commonly used Extra points.
* Step-by-Step instruction on properly determining body distances using Chinese Cun measurements. * A virtual tour of the human body highlighting most of the major surface anatomy landmarks using stunning, medically accurate imagery from Primal Pictures. * Full body-length photographs detailing the meridian pathways. * Multi-camera perspective recreating the experience of having one-to-one expert tuition. * A true video production,- designed to play on your computer, or better yet, on your television/dvd player where you can view the approximately 4 hours of training footage in the comfort of your living room. Suitable for all healthcare professionals who incorporate acupuncture or acupressure in their practice, HOW TO LOCATE ACUPUNCTURE POINTS - THE DEFINITIVE DVD promises to be the most sophisticated and informative acupuncture training video produced to date.
also You can look my other last:


General
Complete name : 4. Spleen.avi
Format : AVI
Format/Info : Audio Video Interleave
File size : 84.0 MiB
Duration : 9mn 31s
Overall bit rate : 1 233 Kbps
Video
ID : 0
Format : MPEG-4 Visual
Format profile : Advanced SimpleL4
Format settings, BVOP : No
Format settings, QPel : No
Format settings, GMC : No warppoints
Format settings, Matrix : Default (H.263)
Codec ID : XVID
Codec ID/Hint : XviD
Duration : 9mn 31s
Bit rate : 1 093 Kbps
Width : 640 pixels
Height : 360 pixels
Display aspect ratio : 16:9
Frame rate : 25.000 fps
Color space : YUV
Chroma subsampling : 4:2:0
Bit depth : 8 bits
Scan type : Progressive
Compression mode : Lossy
Bits/(Pixel*Frame) : 0.190
Stream size : 74.5 MiB (89%)
Writing library : Magic0432
Audio
ID : 1
Format : MPEG Audio
Format version : Version 1
Format profile : Layer 3
Mode : Joint stereo
Mode extension : MS Stereo
Codec ID : 55
Codec ID/Hint : MP3
Duration : 9mn 31s
Bit rate mode : Constant
Bit rate : 128 Kbps
Channel(s) : 2 channels
Sampling rate : 44.1 KHz
Compression mode : Lossy
Stream size : 8.72 MiB (10%)
Alignment : Aligned on interleaves
Interleave, duration : 26 ms (0.65 video frame)
Writing library : LAME3.97

http://s2.1pic.org/files/2016/09/25/4fcaf2b83cad90ecfd9b.jpg
http://s2.1pic.org/files/2016/09/25/1974b7b240ca7652ab22.jpg
http://s2.1pic.org/files/2016/09/25/d60951056e29a92f6450.jpg
http://s2.1pic.org/files/2016/09/25/a94c232bfbdb266a1b12.jpg

Download link:
Links are Interchangeable - Single Extraction - Premium is support resumable
Direct Download


Tags: Locate, Acupuncture, Points


How to Locate Acupuncture Points Fast Download via Rapidshare Hotfile Fileserve Filesonic Megaupload, How to Locate Acupuncture Points Torrents and Emule Download or anything related.
Dear visitor, you went to website as unregistered user.
We encourage you to Register or Login to website under your name.

Add comments

Name:*
E-Mail:*
Comments:
Enter Code: *