Information of news
 (Votes #: 0)

Monster Licks & Speed Picking with Frank Gambale

Category: Tutorial

Download Now

Monster Licks & Speed Picking with Frank Gambale

Monster Licks & Speed Picking with Frank Gambale
DVDRip | English | MPG + PDF Guide | 384 x 288 | MPEG ~1450 kbps | 25 fps
MPEG Audio 192 Kbps 44.1 KHz | 2 channels | 01:05:41 | 786 MB
Genre: eLearning Video / Guitar lesson

This DVD details Frank's innovative speed/sweep picking technique and presents a method for developing "monster licks." He demonstrates his picking technique in the context of scales, pentatonics, arpeggios, and triad examples, playing each slowly and then at lightning speed. DVD special features include a tuning segment and a bonus video performance (Allan Holdsworth, John Scofield).
also You can look my other last: General
Complete name : Frank Gambale - Monster Licks And Speed Picking.mpg
Format
: MPEG-PS
File size
: 782 MiB
Duration
: 1h 5mn
Overall bit rate : 1 664 Kbps
Writing library : encoded by TMPGEnc b12j

Video
ID : 224 (0xE0)
Format
: MPEG Video
Format version : Version 1
Format settings, BVOP : Yes
Format settings, Matrix : Custom
Format settings, GOP : M=3, N=18
Duration
: 1h 5mn
Bit rate
: 1 450 Kbps
Width
: 384 pixels
Height
: 288 pixels
Display aspect ratio : 4:3
Frame rate
: 25.000 fps
Color space
: YUV
Bit depth
: 8 bits
Scan type
: Progressive
Compression mode : Lossy
Bits/(Pixel*Frame)

: 0.524
Time code of first frame : 00:00:00:00
Time code source : Group of pictures header
Stream size
: 676 MiB (86%)
Writing library : TMPGEnc b12j

Audio
ID : 192 (0xC0)
Format
: MPEG Audio
Format version : Version 1
Format profile : Layer 3
Duration
: 1h 5mn
Bit rate mode : Constant
Bit rate
: 192 Kbps
Channel(s)
: 2 channels
Sampling rate : 44.1 KHz
Compression mode : Lossy
Stream size
: 90.2 MiB (12%)

Monster Licks & Speed Picking with Frank Gambale

Monster Licks & Speed Picking with Frank Gambale


DOWNLOAD:

Direct Download


Tags: Monster, Picking, Gambale


Monster Licks & Speed Picking with Frank Gambale Fast Download via Rapidshare Hotfile Fileserve Filesonic Megaupload, Monster Licks & Speed Picking with Frank Gambale Torrents and Emule Download or anything related.
Dear visitor, you went to website as unregistered user.
We encourage you to Register or Login to website under your name.

Add comments

Name:*
E-Mail:*
Comments:
Enter Code: *