Information of news
 (Votes #: 0)

Wendi Friesen - How to Hypnotize Anyone

Category: Tutorial

Download Now

Wendi Friesen - How to Hypnotize Anyone

Wendi Friesen - How to Hypnotize Anyone
DVDRip | English | AVI | 640 x 464 | XviD ~786 kbps | 29.970 fps
MP3 | 128 Kbps | 48.0 KHz | 2 channels | 01:45:29 | 698 MB
Genre: eLearning Video / Hypnosis, NLP, Self Improvement

Learn the basic and most important principles of hypnosis from this entertaining video. Professionally edited, fast paced and fun... Wendi will show you how to master the inductions, suggestions, language patterns, suggestibility tests, hypnotic voice training, rules of the mind, post-hypnotic suggestions, compounding suggestions, ideo-motor responses, dream programming, metaphor creation, and more. This video includes the famous Dave Elman Induction. Eliminate Stress, lower blood pressure and relieve pain, in just a few minutes.
General
Complete name : Wendi Friesen - How to Hypnotize anyone.avi
Format
: AVI
Format/Info
: Audio Video Interleave
File size
: 699 MiB
Duration
: 1h 45mn
Overall bit rate : 926 Kbps
Writing library : The best and REALLY easy backup tool

Video
ID : 0
Format
: MPEG-4 Visual
Format profile : [email protected]
Format settings, BVOP : No
Format settings, QPel : No
Format settings, GMC : No warppoints
Format settings, Matrix : Default (H.263)
Codec ID
: XVID
Codec ID/Hint : XviD
Duration
: 1h 45mn
Bit rate
: 786 Kbps
Width
: 640 pixels
Height
: 464 pixels
Display aspect ratio : 1.379
Frame rate
: 29.970 fps
Color space
: YUV
Chroma subsampling

: 4:2:0
Bit depth
: 8 bits
Scan type
: Progressive
Compression mode : Lossy
Bits/(Pixel*Frame)

: 0.088
Stream size
: 593 MiB (85%)
Writing library : XviD 1.2.0.dev47 (UTC 2006-11-01)

Audio
ID : 1
Format
: MPEG Audio
Format version : Version 1
Format profile : Layer 3
Mode
: Joint stereo
Mode extension : MS Stereo
Codec ID
: 55
Codec ID/Hint : MP3
Duration
: 1h 45mn
Bit rate mode : Constant
Bit rate
: 128 Kbps
Channel(s)
: 2 channels
Sampling rate : 48.0 KHz
Compression mode : Lossy
Stream size
: 96.6 MiB (14%)
Alignment
: Aligned on interleaves
Interleave, duration : 33 ms (1.00 video frame)
Interleave, preload duration : 504 ms
Writing library : LAME3.97
Encoding settings: -m j -V 4 -q 2 -lowpass 17 -b 128

Wendi Friesen - How to Hypnotize Anyone


Wendi Friesen - How to Hypnotize Anyone


Wendi Friesen - How to Hypnotize Anyone

Wendi Friesen - How to Hypnotize Anyone

DOWNLOAD:

Direct Download


Tags: Friesen, Hypnotize, Anyone


Wendi Friesen - How to Hypnotize Anyone Fast Download via Rapidshare Hotfile Fileserve Filesonic Megaupload, Wendi Friesen - How to Hypnotize Anyone Torrents and Emule Download or anything related.
Dear visitor, you went to website as unregistered user.
We encourage you to Register or Login to website under your name.

Add comments

Name:*
E-Mail:*
Comments:
Enter Code: *