Information of news
 (Votes #: 0)

Mind Power Techniques- 3 Steps To Break All Bad Habits

Category: Tutorial

Download Now

http://s2.1pic.org/files/2016/09/21/465d96eec634397b2523.jpg
Mind Power Techniques- 3 Steps To Break All Bad Habits
WEBRip | English | MP4 | 1280 x 720 | AVC ~6398 kbps | 30.030 fps
AAC | 66.2 kbps | 44.1 KHz | 2 channels | 00:35:47 | 1.13 GB
Genre: eLearning Video / Self-Improvement, Personal Transformation, Psychology

Mind Power- 3 Steps To Break All Bad Habits Using Powerful Mind Power , Relaxation And Anchoring Techniques Breaking a bad habit is not as easy as we think; smokers and drinkers are best examples of this. Choosing a correct way of programming to break or change habits is very important. This course is designed to help you break your old bad habits using mind power techniques.
In this lesson, you will learn whether or not you really want to give up your bad habit. You can only stop or break a bad habit if you personally want to do so, not anything else.
This course is ideal for students who want to overcome all their bad habits like smoking, drinking,drugs, gambling , addictions , nail biting out of nervousness etc and become more relaxed and confident in life using powerful mind techniques.
You will not only overcome the habit but also start disliking the habit once and for all and never get into such habits again in future.
It is also very helpful for people who want to get over depression , anxiety , insomnia , negativity and stress.
This course contains a lot of exercises and more than 30 minutes of live video content designed over 7 lectures in English.
What are the requirements?
PC with High Speed Internet
Quiet Room
High Level of Focus and Concentration
Notebook and Pen
Headphones
Works On Mobile Phones And Tablets
What am I going to get from this course?
Over 7 lectures and 35 mins of content!
You will be able to mentally prepare yourself to break bad habits and do it without any hesitation and overcome all the problems associated with bad habits
By the end of the course you will learn the 3 important and powerful steps to break bad habits like smoking, drinking, gambling ,addictions and nail biting out of nervousness.
By the end of the course you will start disliking the bad habit, which you are addicted to using mind power techniques.
You will be able to relax instantly and also anchor confidence in times of need and counter habits derived out of nervousness and anxiety
What is the target audience?
This course is for everyone who want to stay healthy and fit in their life both mentally and physically and have peace of mind by giving up the bad habits
This course is also very useful for people who are suffering from negative thoughts, lack of sleep , depression and stress due to the bad habits
It is ideal for people who are into bad habits like smoking, drugs, alcohol, addictions etc and want to overcome it by mentally programming their mind
Age group 16 and above
Curriculum
Section 1: Introduction To The Course
Lecture 1 Introduction To The Course 05:47
Breaking a bad habit is not as easy as we think; smokers and drunkards are best example of this. Choosing a correct way of programming to break or change habits is very important. This course is designed to help you break your old bad habits using mind power techniques.
Section 2: Mind Power- 3 Steps To Break Any Bad Habits
Lecture 2 Learn Instant Relaxation 09:16
Lecture 3 Develop Confidence Anchors 04:09
Lecture 4 How To Know If You Really Want To Give It Up Or Not 05:25
In this lesson, you will learn whether or not you really want to give up your bad habit. You can only stop or break a bad habit if you personally want to do so, not anything else.
Lecture 5 Learn To Hate That Habit 04:13
This is a powerful visualization exercise, which will help you to start disliking the bad habit, which you are addicted to. using powerful mind power technique.
Lecture 6 Go, Going, Gone - Visualization Exercise 04:23
This is another wonderful visualization exercise, which will show you the positive and healthy life after you give up the deadly habit.
Section 3: Summary Of The Course
Lecture 7 Summary To The Course 02:32
also You can watch my other last:


General
Complete name : 002 Develop Confidence Anchors.mp4
Format : MPEG-4
Format profile : Base Media
Codec ID : isom
File size : 192 MiB
Duration : 4mn 9s
Overall bit rate mode : Variable
Overall bit rate : 6 464 Kbps
Encoded date : UTC 2015-10-28 11:21:03
Tagged date : UTC 2015-10-28 11:21:03
Video
ID : 1
Format : AVC
Format/Info : Advanced Video Codec
Format profile : BaselineL3.2
Format settings, CABAC : No
Format settings, ReFrames : 3 frames
Format settings, GOP : M=1, N=50
Codec ID : avc1
Codec ID/Info : Advanced Video Coding
Duration : 4mn 9s
Bit rate : 6 398 Kbps
Maximum bit rate : 9 220 Kbps
Width : 1 280 pixels
Height : 720 pixels
Display aspect ratio : 16:9
Frame rate mode : Constant
Frame rate : 30.030 fps
Color space : YUV
Chroma subsampling : 4:2:0
Bit depth : 8 bits
Scan type : Progressive
Bits/(Pixel*Frame) : 0.231
Stream size : 190 MiB (99%)
Writing library : Zencoder Video Encoding System
Encoded date : UTC 2015-10-28 11:20:04
Tagged date : UTC 2015-10-28 11:21:03
Audio
ID : 2
Format : AAC
Format/Info : Advanced Audio Codec
Format profile : LC
Codec ID : 40
Duration : 4mn 9s
Bit rate mode : Variable
Bit rate : 66.2 Kbps
Maximum bit rate : 82.0 Kbps
Channel(s) : 2 channels
Channel positions : Front: L R
Sampling rate : 44.1 KHz
Compression mode : Lossy
Stream size : 1.99 MiB (1%)
Encoded date : UTC 2015-10-28 11:20:04
Tagged date : UTC 2015-10-28 11:21:03


http://s2.1pic.org/files/2016/09/21/ea1be406e833653d8998.jpg

Download link:
Links are Interchangeable - Single Extraction - Premium is support resumable
Direct Download


Tags: Techniques, Habits


Mind Power Techniques- 3 Steps To Break All Bad Habits Fast Download via Rapidshare Hotfile Fileserve Filesonic Megaupload, Mind Power Techniques- 3 Steps To Break All Bad Habits Torrents and Emule Download or anything related.
Dear visitor, you went to website as unregistered user.
We encourage you to Register or Login to website under your name.

Add comments

Name:*
E-Mail:*
Comments:
Enter Code: *