Information of news
 (Votes #: 0)

Pro Studio Live - Steve Albini Analog Mixing Session (2016)

Category: Tutorial

Download Now
Pro Studio Live - Steve Albini Analog Mixing Session
WEBRip | English | MP4 | 1280 x 720 | AVC ~1456 kbps | 25 fps
AAC | 256 Kbps | 44.1 KHz | 2 channels | 05:18:34 | 4.34 GB
Genre: Video Tutorial / Sound Processing

Steve Albini is one of the most well know recording and mixing engineers in the world. He's worked with bands and artists such as Nirvana, Jimmy Page, Foxy Shazam, and Bush, just to name a few. In this event Steve will be showing you his workflow on a mix using a 2" tape machine, API console and outboard gear. Although this session will be 100% analog, the techniques showcased can still be applied to the digital world. Watch, hear and learn a variety of mixing techniques Steve has used throughout his career.
We will begin the session with a discussion with Steve about different topics centered around recording. We will ask questions regarding analog recording, recording techniques, and his personal workflow. Then he will go through his process of calibrating the tape machine to ensure proper playback. After that he will mix a song by the band Subsurfer, which was recorded at his studio in Chicago. He will explain how the tracks were recorded and you will get to see the issues that come up as Steve raises the faders. His approach is simple but effective, and his explanations on his mixing decisions are very clear to understand. Steve has a philosophy of transparency and capturing what the band really is, and you will get to see what that means in technical terms. You will see cool tricks like creating a resonant equalizer for the bass drum, parallel compression on vocals, tape splicing, but most importantly, you will listen to music through Steve Albini's ears and get a scope on how he solves problems and achieves his sound.
also You can look my other last:

Complete name : Steve Albini 100% Analog Mixing Session Episode 2.mp4
Format : MPEG-4
Format profile : Base Media
Codec ID : isom
File size : 705 MiB
Duration : 57mn 20s
Overall bit rate mode : Variable
Overall bit rate : 1 719 Kbps
Writing application : Lavf56.40.101
rati : (Binary)
ID : 1
Format : AVC
Format/Info : Advanced Video Codec
Format profile : MainL4.1
Format settings, CABAC : Yes
Format settings, ReFrames : 3 frames
Codec ID : avc1
Codec ID/Info : Advanced Video Coding
Duration : 57mn 20s
Bit rate : 1 456 Kbps
Width : 1 280 pixels
Height : 720 pixels
Display aspect ratio : 16:9
Frame rate mode : Constant
Frame rate : 25.000 fps
Color space : YUV
Chroma subsampling : 4:2:0
Bit depth : 8 bits
Scan type : Progressive
Bits/(Pixel*Frame) : 0.063
Stream size : 597 MiB (85%)
ID : 2
Format : AAC
Format/Info : Advanced Audio Codec
Format profile : LC
Codec ID : 40
Duration : 57mn 20s
Duration_LastFrame : -2ms
Bit rate mode : Variable
Bit rate : 256 Kbps
Maximum bit rate : 8 000 Kbps
Channel(s) : 2 channels
Channel positions : Front: L R
Sampling rate : 44.1 KHz
Compression mode : Lossy
Delay relative to video : 80ms
Stream size : 105 MiB (15%)

Download link:
Links are Interchangeable - Single Extraction - Premium is support resumable
Direct Download

Tags: Studio, Albini, Analog, Mixing, Session

Pro Studio Live - Steve Albini Analog Mixing Session (2016) Fast Download via Rapidshare Hotfile Fileserve Filesonic Megaupload, Pro Studio Live - Steve Albini Analog Mixing Session (2016) Torrents and Emule Download or anything related.
Dear visitor, you went to website as unregistered user.
We encourage you to Register or Login to website under your name.

Add comments

Enter Code: *