Information of news
 (Votes #: 0)

Ben Adkins - The Clarity Program

Category: Tutorial

Download Now
Ben Adkins - The Clarity Program
WEBRip | English | MP4 | 960 x 600 | AVC ~1200 kbps | 30 fps
AAC | 128 Kbps | 44.1 KHz | 2 channels | 12:08:22 | 1.92 GB
Genre: Video Tutorial / Business, Sales, Marketing

Ready to Learn The Insider Secrets to Making a Full time Income Creating Unique "Instruction Manuals" from Your Existing Expertise?
Proven Tactics that Have Generated Millions of Dollars are Inside:

Week 1:

The Clarity Master Plan
(Getting your Head Right)
When You Land Inside of the Clarity Program you're going to get the step by step overview of how to build a business by creating "Instruction Manuals" for people that you already serve.
In Week 1 You'll Learn:

The Secret to Simplifying Your Life: In this Section we'll be getting rid of all of the distractions that are keeping you from becoming a millionaire in your industry. This is going to be painful at first but you'll be blown away by how much more time you have in your business when you take action on this section.
The Step by Step Clarity Overview: In this section you'll see a bird's eye view of the entire system and how we're going to set you up as an expert in your industry, complete with Digital Products to sell and profit from. (this one section is a master success plan that most people never figure out and it's why they struggle year after year.)
The Art of Being Interesting: This should be an entire course in itself. In this section you'll learn the secrets to standing out in your industry by "looking different". This took me years, and thousands of dollars to learn but you'll have an inside view at 5 rules to follow to always stand out and have a competitive advantage because of it.
The Power of Setting the Bar: In this section I'm going to show you how to get a ninja like focus on why you're inside of this program in the first place and how to make the work that you're doing really mean something. This simple exercise will take you about an hour but will change the way you look at your life (and business) forever.
By the time you're through with this part of the program you'll have a unique insight into the process of creating an online business based on your expertise and how it will instantly change your life. This sets you up perfectly for week 2 where we start Reverse Engineering Your Industry for Maximum Results.
Week 2:

Finding Your Industry's "One Thing".
(Researching Your Industry)
This is the secret sauce to, not only making a good amount of money using the internet, but to becoming a trusted authority in an industry. In this section I'm going to show you how to Reverse Engineer your Industry to find out what people are STARVING FOR. This Week is the Secret Behind how I create and sell digital "instruction manuals" that people love and tell their friends about.
In Week 2 You'll Learn:

How to Pull out Your Industries Heart: In this section I'll show you how to get to the bottom of what your potential customers want to know the most. This simple research method will dial in your business and give you an extreme focus on what you need to create for them first.
The Secret to Amazing Content Forever: In this section I'll show you how to take all the research you've done and use that to find the Industry Leaders on the topic. Once you've got this down, you'll be able to create endless amounts of products from just a few key sources. This is how I'm able to put out powerful and effective products that get my customers results, no matter what Industry I'm working in.
My Product Creation Productivity Hack: Over the years I've gotten insanely efficient at creating products for my business and the businesses of others. It all comes down to a few simple tools that I use that allow me to create products quickly and on the fly. You'll see how I create products that generate thousands of dollars in 5 days inside of this section.
My Closely Guarded Contagious Product Formula: What makes a great "how to product" that people love? It all comes down to 7 Key Components which include my, never before talked about, CFED METHOD. If you include all 7 components, you will create a product that people love and a customer that wants to buy from you over and over again.
By the time you're know exactly how to deconstruct your industry and get inside the heads of your target market so that you can build products they MUST Have.
Week 3:

The "Small Giant" Formula
(Building Your Sellable Assets Quickly)
In this week you'll learn my most valuable skill and the reason that I can run a million dollar per year business without selling anything tangible.
In Week 3 You'll Master:

The Fearless PDF Product Template: I'm handing over my personal product creation template for your own personal use. I will break it down for you so you know exactly how to take your expert knowledge and fill in the blanks to create a perfect product to sell. Having this template will save you hours of formatting and will give you a paint by numbers guide for creating viral products.
My 5 Day Product Creation Method: This is how I write and something that people have been trying to pull out of me for years. I'll walk you through the process that I use to create a complete product in just 5 days using something I call "batching". Once you start using this method to write, you'll get more done in 5 days than most people do in 3 months.
Giving your Product The Apple Treatment: One of the hallmarks of a great product is one that makes a person feel like they purchased a work of art. I'll show you how to create products that "pop" and will be just as much of a conversation pieces as they are an "instruction manual".
also You can watch my other last:

Complete name : 02. The Simple System That Makes Me Millions Every Year.MP4
Format : MPEG-4
Format profile : Base Media
Codec ID : isom
File size : 73.5 MiB
Duration : 7mn 41s
Overall bit rate : 1 337 Kbps
Writing application : Lavf56.40.101
ID : 1
Format : AVC
Format/Info : Advanced Video Codec
Format profile : HighL3.1
Format settings, CABAC : Yes
Format settings, ReFrames : 4 frames
Codec ID : avc1
Codec ID/Info : Advanced Video Coding
Duration : 7mn 41s
Bit rate : 1 200 Kbps
Width : 960 pixels
Height : 600 pixels
Display aspect ratio : 16:10
Frame rate mode : Constant
Frame rate : 30.000 fps
Color space : YUV
Chroma subsampling : 4:2:0
Bit depth : 8 bits
Scan type : Progressive
Bits/(Pixel*Frame) : 0.069
Stream size : 66.0 MiB (90%)
Writing library : x264 core 142 r2491 24e4fed
Encoding settings : cabac=1 / ref=2 / deblock=1:0:0 / analyse=0x3:0x113 / me=hex / subme=6 / psy=1 / psy_rd=1.00:0.00 / mixed_ref=1 / me_range=16 / chroma_me=1 / trellis=0 / 8x8dct=1 / cqm=0 / deadzone=21,11 / fast_pskip=1 / chroma_qp_offset=-2 / threads=12 / lookahead_threads=2 / sliced_threads=0 / nr=0 / decimate=1 / interlaced=0 / bluray_compat=0 / constrained_intra=0 / bframes=3 / b_pyramid=2 / b_adapt=1 / b_bias=0 / direct=3 / weightb=1 / open_gop=0 / weightp=2 / keyint=250 / keyint_min=25 / scenecut=40 / intra_refresh=0 / rc_lookahead=40 / rc=2pass / mbtree=1 / bitrate=1200 / ratetol=1.0 / qcomp=0.60 / qpmin=10 / qpmax=51 / qpstep=4 / cplxblur=20.0 / qblur=0.5 / ip_ratio=1.41 / aq=1:1.00
ID : 2
Format : AAC
Format/Info : Advanced Audio Codec
Format profile : LC
Codec ID : 40
Duration : 7mn 41s
Bit rate mode : Constant
Bit rate : 128 Kbps
Channel(s) : 2 channels
Channel positions : Front: L R
Sampling rate : 44.1 KHz
Compression mode : Lossy
Delay relative to video : 67ms
Stream size : 7.04 MiB (10%)

Download link:
Links are Interchangeable - Single Extraction - Premium is support resumable
Direct Download

Tags: Adkins, Clarity, Program

Ben Adkins - The Clarity Program Fast Download via Rapidshare Hotfile Fileserve Filesonic Megaupload, Ben Adkins - The Clarity Program Torrents and Emule Download or anything related.
Dear visitor, you went to website as unregistered user.
We encourage you to Register or Login to website under your name.

Add comments

Enter Code: *