Information of news
 (Votes #: 0)

Born To Produce - Techno With Cubase (2016)

Category: Tutorial

Download Now

http://s2.1pic.org/files/2016/09/16/4ea6fcf5ff45c183bd4a.jpg
Born To Produce - Techno With Cubase
WEBRip | English | MP4 | 1280 x 720 | AVC ~1721 kbps | 29.970 fps
AAC | 115 Kbps | 44.1 KHz | 2 channels | 04:52:26 | 4.51 GB
Genre: Video Tutorial / Sound Processing

Make a Techno track and learn Cubase at the same time. Follow along and make a Techno track yourself from start to finish with easy to follow step by step guidance from pro producer Jay Hales (Born to Produce) and learn everything you need to know about Cubase as you're doing it. There is NO better way to learn Cubase.
No long boring explanations that don't make sense until you have been using the software for months. We get straight into making music and we go through all the tools and skills you need to make massive improvements to your own productions. To top it all we don't use any third party plugins whatsoever, just Cubase stock VSTs and FX.
Learn how to make a complete Techno track from start to finish.
Using only Cubase plugins - yes it can be done!
From nothing, right through to the final mixdown, we show you...
Where to find techno samples already within Cubase (& externally)
Different ways to import and manipulate them to fit the mix
How to combine samples to make them fatter
How to create your own original synth sounds and FX sweeps
How to structure your track taking care of interest, dynamics, variation, energy builds and releases and much more
Professionally mix your track to a high standard using automation, EQ, filters, etc.
Master your track at home
Cubase 8 Artist or Pro recommended but not essential
Content:
Lessons 1 - 2 : History, Intro & Setting Up
Lesson 3 - 6 : Kick, Hats, Clap & Percussion
Lesson 7 - 8 : Bass & Sub Bass
Lesson 9 : Driving the High End
Lesson 10 : Driving the Mid Range
Lesson 11 : Filling Out The Drums
Lesson 12 : Creating Your Own Sound
Lesson 13 - 14 : Arrangement (How To Structure)
Lesson 15 - 19 : Adding FX
Lesson 20 : Mixing in 3D
Lesson 21 : Adding Variation
Lesson 22 - 23 : Mixdown
Lesson 24 : Mastering
also You can look my other last:


General
Complete name :TBP 02 Finding and importing audio.mp4
Format : MPEG-4
Format profile : Base Media
Codec ID : isom
File size : 204 MiB
Duration : 15mn 27s
Overall bit rate mode : Variable
Overall bit rate : 1 845 Kbps
Writing application : Lavf57.42.100
Video
ID : 1
Format : AVC
Format/Info : Advanced Video Codec
Format profile : BaselineL3.0
Format settings, CABAC : No
Format settings, ReFrames : 3 frames
Format settings, GOP : M=1, N=100
Codec ID : avc1
Codec ID/Info : Advanced Video Coding
Duration : 15mn 27s
Bit rate : 1 721 Kbps
Width : 1 280 pixels
Height : 720 pixels
Display aspect ratio : 16:9
Frame rate mode : Variable
Frame rate : 29.970 fps
Minimum frame rate : 29.412 fps
Maximum frame rate : 30.303 fps
Color space : YUV
Chroma subsampling : 4:2:0
Bit depth : 8 bits
Scan type : Progressive
Bits/(Pixel*Frame) : 0.062
Stream size : 190 MiB (93%)
Writing library : Zencoder Video Encoding System
Color primaries : BT.709
Transfer characteristics : BT.709
Matrix coefficients : BT.709
Audio
ID : 2
Format : AAC
Format/Info : Advanced Audio Codec
Format profile : LC
Codec ID : 40
Duration : 15mn 27s
Bit rate mode : Variable
Bit rate : 115 Kbps
Maximum bit rate : 128 Kbps
Channel(s) : 2 channels
Channel positions : Front: L R
Sampling rate : 44.1 KHz
Compression mode : Lossy
Stream size : 12.7 MiB (6%)

http://s2.1pic.org/files/2016/09/16/43a237726920fc87b04c.jpg
http://s2.1pic.org/files/2016/09/16/8ca842ddbb8fb38d7f58.jpg
http://s2.1pic.org/files/2016/09/16/1dc199f8f84ad2e4ee30.jpg

Download link:
Links are Interchangeable - Single Extraction - Premium is support resumable
Direct Download


Tags: Produce, Techno, Cubase


Born To Produce - Techno With Cubase (2016) Fast Download via Rapidshare Hotfile Fileserve Filesonic Megaupload, Born To Produce - Techno With Cubase (2016) Torrents and Emule Download or anything related.
Dear visitor, you went to website as unregistered user.
We encourage you to Register or Login to website under your name.

Add comments

Name:*
E-Mail:*
Comments:
Enter Code: *