Information of news
 (Votes #: 0)

Anthony Jacquin - The Manchurian Approach

Category: Tutorial

Download Now

http://s2.1pic.org/files/2016/09/16/23f0e3e462521cd5d012.jpg
Anthony Jacquin - The Manchurian Approach
4xDVDRip | English | AVI | 608 x 352 | XviD ~914 kbps | 29.970 fps
MP3 | 88.1 Kbps | 48.0 KHz | 2 channels | 05:46:22 | 2.73 GB
Genre: eLearning Video / Magic tricks, Illusion, Hypnosis

A complete course in Hypnotism for Magicians & Mentalists Whether it is to satisfy a fascination with hypnosis, the desire to mix hypnosis with your magic or you want to be able to perform impromptu hypnotism this DVD is for you.
Aimed at amateur and professional magicians and mentalists, this unique DVD is aimed solely at performance hypnosis. As well as interview-style explanations and training we include footage of taking these skills to the street and public bars. You will gain the confidence, attitude, patter and techniques required to excel including:
* Handshake Induction
* Hypno Force
* Hypno Peek
* Covert Pre-show
* Reverse Mind Reading
Anthony Jacquin has over ten years experience as a hypnotist and is the author of the best-selling book: "Reality is Plastic - The Art of Impromptu Hypnosis" On "The Manchurian Approach" he shares a new genre of magical performance. Mixing his love of mentalism with his hypnotism skills, together with Kev Sheldrake he has created a performance style and technique capable of producing some of the most mind-blowing mental effects.
On this Four-disc set you will learn, in detail, Anthony's approach to impromptu hypnosis - no prior knowledge is required - the first part of this set will guide you through everything you need to know in order to become the hypnotist. The second part takes the format of a discussion forum where Anthony is joined by mad genius, Kev Sheldrake and fellow hypnotist and magician Amit Badiani. In this section you will get a detailed look at some of the principles and applications of the techniques taught to magic and mentalism performances.
Hypno forces and hypno peeks are examples of the covert pre-show techniques that are available to a hypnotising mentalist. The Reverse Mind Reading effect takes these concepts a step further, producing an unlimited ability to read a mind with the minimum of hypnotic pre-show work.
Concepts
* Become The Hypnotist. Learn an observation/attitude-based hypnosis model.
* Learn how to perform with hypnosis. Apply it to magic and mentalism.
* No history and theory lessons. Just tuition and demonstration
* Mixture of interview-style discussions and public performances.
Contents
Part 1:
Through clear demonstrations you will learn a solid but flexible approach to hypnotizing. This is covered in detail in the following segments:
- Introduction and approaching a group
- Subject selection
- Set Up
- The set piece - magnetic hands, magnetic fingers & the heavy card
- Inductions - eye to hand fixation and the handshake induction
- Fractionation
- Testing
- Re-Induction
- Suggestion
- Catalepsy
- Corpsing
- Amnesia

Part 2:

Further explanation and demonstration to cover in-depth more specialized knowledge and the applications of hypnosis to specific genres of magic and mentalism including:
- Hypno Forces
- Hypno Peeks
- Hallucinations
- Control
- Post-Hypnotic Act
- Managing reaction
- Permanosis
- Covert pre-show applications
- Reverse mind reading
This will be put into the context of typical magic settings including impromptu, street, walk around, stage and TV. Also included are in-depth discussions on how to practice, what to do if it does not seem to be working and important health and safety and performance information and tips.
Also included are three bonus PDF documents that expand on some of the ideas covered on the DVD's as well as some further techniques and routines.
With five hours of tuition, live performance and in-depth explanations, this three-disc set is bound to become a definitive classic for a new and exciting genre of performance that blends magic, mentalism and hypnosis. So order your copy of "The Manchurian Approach" today!
also You can look my other last:


General
Complete name : The Manchurian Approach - DvD 2.avi
Format : AVI
Format/Info : Audio Video Interleave
File size : 699 MiB
Duration : 1h 36mn
Overall bit rate mode : Variable
Overall bit rate : 1 016 Kbps
Writing application : VirtualDubMod 1.5.4.1 (build 2178/release)
Writing library : VirtualDubMod build 2178/release
Video
ID : 0
Format : MPEG-4 Visual
Format profile : Advanced SimpleL5
Format settings, BVOP : 1
Format settings, QPel : No
Format settings, GMC : No warppoints
Format settings, Matrix : Custom
Codec ID : XVID
Codec ID/Hint : XviD
Duration : 1h 36mn
Bit rate : 914 Kbps
Width : 608 pixels
Height : 352 pixels
Display aspect ratio : 1.727
Frame rate : 29.970 fps
Color space : YUV
Chroma subsampling : 4:2:0
Bit depth : 8 bits
Scan type : Progressive
Compression mode : Lossy
Bits/(Pixel*Frame) : 0.143
Stream size : 629 MiB (90%)
Writing library : XviD 1.2.1 (UTC 2008-12-04)
Audio
ID : 1
Format : MPEG Audio
Format version : Version 1
Format profile : Layer 3
Mode : Joint stereo
Mode extension : MS Stereo
Codec ID : 55
Codec ID/Hint : MP3
Duration : 1h 36mn
Bit rate mode : Variable
Bit rate : 88.1 Kbps
Nominal bit rate : 128 Kbps
Channel(s) : 2 channels
Sampling rate : 48.0 KHz
Compression mode : Lossy
Stream size : 60.6 MiB (9%)
Alignment : Aligned on interleaves
Interleave, duration : 24 ms (0.72 video frame)
Interleave, preload duration : 606 ms
Writing library : LAME3.98r
Encoding settings : -m j -V 4 -q 2 -lowpass 17 -abr 128

http://s2.1pic.org/files/2016/09/16/5d2d362a76140208aec8.jpg
http://s2.1pic.org/files/2016/09/16/c0040beddc79cf2133e3.jpg
http://s2.1pic.org/files/2016/09/16/74204f9811a3eb0587c9.jpg
http://s2.1pic.org/files/2016/09/16/805334838c5def7673b8.jpg

Download link:
Links are Interchangeable - Single Extraction - Premium is support resumable
Direct Download


Tags: Anthony, Jacquin, Manchurian, Approach


Anthony Jacquin - The Manchurian Approach Fast Download via Rapidshare Hotfile Fileserve Filesonic Megaupload, Anthony Jacquin - The Manchurian Approach Torrents and Emule Download or anything related.
Dear visitor, you went to website as unregistered user.
We encourage you to Register or Login to website under your name.

Add comments

Name:*
E-Mail:*
Comments:
Enter Code: *