Information of news
 (Votes #: 0)

Copyhackers - Conversion Copywriting Course with Joanna Wiebe

Category: Tutorial

Download Now

http://s2.1pic.org/files/2016/09/16/516efdac98e4be4ba283.jpg
Copyhackers - Conversion Copywriting Course
WEBRip | English | MP4 + MP3 + PDF Guides | 768 x 480 | AVC ~770 kbps | 30 fps
AAC | 126 Kbps | 44.1 KHz | 2 channels | 08:42:28 | 3.21 GB
Genre: Video Tutorial / Business, Copywriting

The Conversion Copywriting Course by Copy Hackers is the 10-week online program that will take you thru the 3-Phase Process we use to write high-converting, test-proof copy. Based on a case study with a 51% paid lift.
Trust our reputation. We only create the most useful, actionable and informed copywriting training for startups, marketers, designers and consultants. You've got 30 days to see if the course wows you. If it doesn't, we'll refund every penny.
All 10 videos, 3 bonus videos and Office Hours recordings are yours for good. Just sign in online, and watch (and rewatch) until you've got it down pat.
Week1 phase I Hunt Down Raw Messages
See exactly how to use Amazon's plentiful reviews - and how to audit your competitors' sites - to find YOUR messages, even if you have no customers.
Week2 phase I Raw Messages, Part II
If your website's up-and-running and you've got customers, you'll learn what to do to pull your next big message outta them!
Week3 phase I Organize All That Data!
This week, we're still finding your message... but we're taking the raw data you've collected and slotting it into a report you can use and reuse to make sense o' yer messages
Week4 phase I Features vs Benefits
As we close off Phase I: Find Your Message, you'll pin down your messages, figure out your layers of benefits... and more!
Week5 phase II Top Copy FAQs... Answered
Everything you've wanted to know - from images vs copy to tapping into motivations - is answered in this info-packed week!
Week6 phase II Powerful Messages
Promises, differentiators and your value prop - these are some of the highest-impact phrases you can put on a page!
Week7 phase II Reverse Engineering
You've got everything you need to rewrite a page - so watch and see why I did what I did for the 51% lift case study.
Week8 phase II Editing & Creative Direction
Your messages have been shaped into a first-draft ... so let's amp it up with some serious polishing via editing.
Week9 phase III A/B Testing Essentials
Lance will cover the foundations of A/B testing. Great if you're brand new to testing or to fill in some gaps in how you've been testing.
Week10 phase III Wrapping Up
You've found messages, organized them, wireframed a page, edited & polished it... and split-test it. Now, see when to stop a test and what to do next!
also You can watch my other last:


General
Complete name : Copy-Hackers-Week-6.mp4
Format : MPEG-4
Format profile : Base Media / Version 2
Codec ID : mp42
File size : 343 MiB
Duration : 53mn 22s
Overall bit rate mode : Variable
Overall bit rate : 898 Kbps
Movie name : Copy-Hackers-Week-6
Encoded date : UTC 2013-01-31 02:24:53
Tagged date : UTC 2013-01-31 02:24:53
Video
ID : 1
Format : AVC
Format/Info : Advanced Video Codec
Format profile : BaselineL3.1
Format settings, CABAC : No
Format settings, ReFrames : 3 frames
Codec ID : avc1
Codec ID/Info : Advanced Video Coding
Duration : 53mn 22s
Source duration : 53mn 22s
Bit rate mode : Variable
Bit rate : 770 Kbps
Width : 768 pixels
Height : 480 pixels
Display aspect ratio : 16:10
Frame rate mode : Variable
Frame rate : 30.000 fps
Minimum frame rate : 30.000 fps
Maximum frame rate : 30.030 fps
Standard : NTSC
Color space : YUV
Chroma subsampling : 4:2:0
Bit depth : 8 bits
Scan type : Progressive
Bits/(Pixel*Frame) : 0.070
Stream size : 294 MiB (86%)
Source stream size : 294 MiB (86%)
Language : English
Encoded date : UTC 2013-01-31 02:24:54
Tagged date : UTC 2013-01-31 02:24:54
mdhd_Duration : 3202233
Audio
ID : 2
Format : AAC
Format/Info : Advanced Audio Codec
Format profile : LC
Codec ID : 40
Duration : 53mn 22s
Source duration : 53mn 22s
Bit rate mode : Variable
Bit rate : 126 Kbps
Maximum bit rate : 258 Kbps
Channel(s) : 2 channels
Channel positions : Front: L R
Sampling rate : 44.1 KHz
Compression mode : Lossy
Stream size : 48.0 MiB (14%)
Source stream size : 48.0 MiB (14%)
Language : English
Encoded date : UTC 2013-01-31 02:24:54
Tagged date : UTC 2013-01-31 02:24:54
mdhd_Duration : 3202264

http://s2.1pic.org/files/2016/09/16/4a1ffdb2774c653ab9f0.jpg

Download link:
Bytewhale.com:
2lzy5.Copyhackers..Conversion.Copywriting.Course.with.Joanna.Wiebe.part1.rar
2lzy5.Copyhackers..Conversion.Copywriting.Course.with.Joanna.Wiebe.part2.rar
2lzy5.Copyhackers..Conversion.Copywriting.Course.with.Joanna.Wiebe.part3.rar
2lzy5.Copyhackers..Conversion.Copywriting.Course.with.Joanna.Wiebe.part4.rar
2lzy5.Copyhackers..Conversion.Copywriting.Course.with.Joanna.Wiebe.part5.rar
2lzy5.Copyhackers..Conversion.Copywriting.Course.with.Joanna.Wiebe.part6.rar
2lzy5.Copyhackers..Conversion.Copywriting.Course.with.Joanna.Wiebe.part7.rar

Rapidgator:
2lzy5.Copyhackers..Conversion.Copywriting.Course.with.Joanna.Wiebe.part1.rar.html
2lzy5.Copyhackers..Conversion.Copywriting.Course.with.Joanna.Wiebe.part2.rar.html
2lzy5.Copyhackers..Conversion.Copywriting.Course.with.Joanna.Wiebe.part3.rar.html
2lzy5.Copyhackers..Conversion.Copywriting.Course.with.Joanna.Wiebe.part4.rar.html
2lzy5.Copyhackers..Conversion.Copywriting.Course.with.Joanna.Wiebe.part5.rar.html
2lzy5.Copyhackers..Conversion.Copywriting.Course.with.Joanna.Wiebe.part6.rar.html
2lzy5.Copyhackers..Conversion.Copywriting.Course.with.Joanna.Wiebe.part7.rar.html

Nitroflare:
2lzy5.Copyhackers..Conversion.Copywriting.Course.with.Joanna.Wiebe.part1.rar
2lzy5.Copyhackers..Conversion.Copywriting.Course.with.Joanna.Wiebe.part2.rar
2lzy5.Copyhackers..Conversion.Copywriting.Course.with.Joanna.Wiebe.part3.rar
2lzy5.Copyhackers..Conversion.Copywriting.Course.with.Joanna.Wiebe.part4.rar
2lzy5.Copyhackers..Conversion.Copywriting.Course.with.Joanna.Wiebe.part5.rar
2lzy5.Copyhackers..Conversion.Copywriting.Course.with.Joanna.Wiebe.part6.rar
2lzy5.Copyhackers..Conversion.Copywriting.Course.with.Joanna.Wiebe.part7.rar
Links are Interchangeable - Single Extraction - Premium is support resumable
Direct Download


Tags: Copyhackers, Copywriting, Course, Joanna


Copyhackers - Conversion Copywriting Course with Joanna Wiebe Fast Download via Rapidshare Hotfile Fileserve Filesonic Megaupload, Copyhackers - Conversion Copywriting Course with Joanna Wiebe Torrents and Emule Download or anything related.
Dear visitor, you went to website as unregistered user.
We encourage you to Register or Login to website under your name.

Add comments

Name:*
E-Mail:*
Comments:
Enter Code: *