Information of news
 (Votes #: 0)

Born To Produce - Drum And Bass / Half-Step in Cubase (2016)

Category: Tutorial

Download Now

http://s2.1pic.org/files/2016/09/16/5e0a7bc839ea012fadeb.jpg
Born To Produce - Drum And Bass / Half-Step in Cubase
WEBRip | English | MP4 + Project files | 1280 x 720 | AVC ~2603 kbps | 29.970 fps
AAC | 79.4 Kbps | 48.0 KHz | 2 channels | 06:19:00 | 7.27 GB
Genre: Video Tutorial / Sound Processing

Learn how to make a complete track from start to finish. From nothing, right through to the final mixdown, we show you...
Set Up Cubase Quickly and Understand Templates (3 Min)
Make a Fat Bass-Line using MIDI, EQ and Sidechaining (42 Min)
Use the Cubase 'Chord-Track' feature to Create a Melody and Arpeggiator (17 Min)
Program Your Drums including Layering, Depth, EQ, Crunch and Much More (38 Min)
Arrange Your Track Including Interest, Dynamics, Structure, Variation (50 Min)
Adding those important effects and fills (1 hr 19)
Edit and Manipulate Vocal phrases (56 Min)
Mix your track to a very high standard (1 hr 33)
Content:
Lesson 1 : Intro & Setup (3 mins)
Lesson 2 : Bass-line Creation (42 mins)
Lesson 3 : The Melody - Chord Track (17 mins)
Lesson 4 : Drum Programming (38 mins)
Lesson 5 : Arrangement (50 mins)
Lesson 6 : Adding FX & Fills (1hr 19m)
Lesson 7 : Adding Vocals (56 mins)
Lesson 8 : Advanced Mixdown (1hr 33m)
also You can look my other last:


General
Complete name : DBHS 02 Bassline creation.mp4
Format : MPEG-4
Format profile : Base Media
Codec ID : isom
File size : 820 MiB
Duration : 42mn 36s
Overall bit rate mode : Variable
Overall bit rate : 2 692 Kbps
Encoded date : UTC 2016-08-25 14:04:43
Tagged date : UTC 2016-08-25 14:04:43
Writing application : vlc 2.2.4 stream output
Comment : QuickTime 6.0 or greater
Video
ID : 1
Format : AVC
Format/Info : Advanced Video Codec
Format profile : BaselineL3.0
Format settings, CABAC : No
Format settings, ReFrames : 3 frames
Format settings, GOP : M=1, N=100
Codec ID : avc1
Codec ID/Info : Advanced Video Coding
Duration : 42mn 36s
Bit rate : 2 603 Kbps
Width : 1 280 pixels
Height : 720 pixels
Display aspect ratio : 16:9
Frame rate mode : Variable
Frame rate : 29.970 fps
Minimum frame rate : 29.412 fps
Maximum frame rate : 30.303 fps
Color space : YUV
Chroma subsampling : 4:2:0
Bit depth : 8 bits
Scan type : Progressive
Bits/(Pixel*Frame) : 0.094
Stream size : 793 MiB (97%)
Writing library : Zencoder Video Encoding System
Language : English
Encoded date : UTC 2016-08-25 14:04:43
Tagged date : UTC 2016-08-25 14:04:43
Color primaries : BT.709
Transfer characteristics : BT.709
Matrix coefficients : BT.709
Audio
ID : 2
Format : AAC
Format/Info : Advanced Audio Codec
Format profile : LC
Codec ID : 40
Duration : 42mn 36s
Source duration : 42mn 34s
Bit rate mode : Variable
Bit rate : 79.4 Kbps
Maximum bit rate : 198 Kbps
Channel(s) : 2 channels
Channel positions : Front: L R
Sampling rate : 48.0 KHz
Compression mode : Lossy
Stream size : 24.2 MiB (3%)
Source stream size : 24.2 MiB (3%)
Language : English
Encoded date : UTC 2016-08-25 14:04:43
Tagged date : UTC 2016-08-25 14:04:43
mdhd_Duration : 2556586

http://s2.1pic.org/files/2016/09/16/7adf9a54bb32e5fa893b.jpg
http://s2.1pic.org/files/2016/09/16/3f280a558e6ce00dccce.jpg
http://s2.1pic.org/files/2016/09/16/2ef3fc7f8f8a41d6dd1b.jpg

Download link:
Bytewhale.com:
ice3k.Born.To.Produce..Drum.And.Bass..HalfStep.in.Cubase.2016.part1.rar
ice3k.Born.To.Produce..Drum.And.Bass..HalfStep.in.Cubase.2016.part2.rar
ice3k.Born.To.Produce..Drum.And.Bass..HalfStep.in.Cubase.2016.part3.rar
ice3k.Born.To.Produce..Drum.And.Bass..HalfStep.in.Cubase.2016.part4.rar
ice3k.Born.To.Produce..Drum.And.Bass..HalfStep.in.Cubase.2016.part5.rar
ice3k.Born.To.Produce..Drum.And.Bass..HalfStep.in.Cubase.2016.part6.rar
ice3k.Born.To.Produce..Drum.And.Bass..HalfStep.in.Cubase.2016.part7.rar
ice3k.Born.To.Produce..Drum.And.Bass..HalfStep.in.Cubase.2016.part8.rar

Rapidgator:
ice3k.Born.To.Produce..Drum.And.Bass..HalfStep.in.Cubase.2016.part1.rar.html
ice3k.Born.To.Produce..Drum.And.Bass..HalfStep.in.Cubase.2016.part2.rar.html
ice3k.Born.To.Produce..Drum.And.Bass..HalfStep.in.Cubase.2016.part3.rar.html
ice3k.Born.To.Produce..Drum.And.Bass..HalfStep.in.Cubase.2016.part4.rar.html
ice3k.Born.To.Produce..Drum.And.Bass..HalfStep.in.Cubase.2016.part5.rar.html
ice3k.Born.To.Produce..Drum.And.Bass..HalfStep.in.Cubase.2016.part6.rar.html
ice3k.Born.To.Produce..Drum.And.Bass..HalfStep.in.Cubase.2016.part7.rar.html
ice3k.Born.To.Produce..Drum.And.Bass..HalfStep.in.Cubase.2016.part8.rar.html

Nitroflare:
ice3k.Born.To.Produce..Drum.And.Bass..HalfStep.in.Cubase.2016.part1.rar
ice3k.Born.To.Produce..Drum.And.Bass..HalfStep.in.Cubase.2016.part2.rar
ice3k.Born.To.Produce..Drum.And.Bass..HalfStep.in.Cubase.2016.part3.rar
ice3k.Born.To.Produce..Drum.And.Bass..HalfStep.in.Cubase.2016.part4.rar
ice3k.Born.To.Produce..Drum.And.Bass..HalfStep.in.Cubase.2016.part5.rar
ice3k.Born.To.Produce..Drum.And.Bass..HalfStep.in.Cubase.2016.part6.rar
ice3k.Born.To.Produce..Drum.And.Bass..HalfStep.in.Cubase.2016.part7.rar
ice3k.Born.To.Produce..Drum.And.Bass..HalfStep.in.Cubase.2016.part8.rar
Links are Interchangeable - Single Extraction - Premium is support resumable
Direct Download


Tags: Produce, Cubase


Born To Produce - Drum And Bass / Half-Step in Cubase (2016) Fast Download via Rapidshare Hotfile Fileserve Filesonic Megaupload, Born To Produce - Drum And Bass / Half-Step in Cubase (2016) Torrents and Emule Download or anything related.
Dear visitor, you went to website as unregistered user.
We encourage you to Register or Login to website under your name.

Add comments

Name:*
E-Mail:*
Comments:
Enter Code: *