Information of news
 (Votes #: 0)

Studio Sessions With FRONTLINER Hardstyle V.1 (2016)

Category: Tutorial

Download Now

Studio Sessions With FRONTLINER Hardstyle V.1 (2016)

Studio Sessions With FRONTLINER Hardstyle V.1
WEBRip | English | MP4 + Project files | 1920 x 1080 | AVC ~502 kbps | 24 fps
AAC | 152 Kbps | 48.0 KHz | 2 channels | 02:08:25 | 643.1 MB
Genre: Video Tutorial / Sound Processing

Hard Fam! It's time to get in the studio with Frontliner (Keep It Up Music | Scantraxx)! Learn from the production master himself as he begins writing a track from scratch! In this tutorial session, he gives you valuable insights along the way, sharing with you his lead synth sound design and layering method, reverb techniques to get a big, anthemic sound and his signature frequency specific sidechain. It was such a pleasure having him in the studio, this guy is all love! He is known as "the melody man" for his incredible melodies and chords.

In addition to being a world class writer, he is also an incredible sound designer and engineer. As he writes the track from a blank project, you will experience the creative process and how one solid musical concept inspires the next. Beautiful, driving melodies and chords naturally unfold into a breakdown, build up, drop and intro. You will be able to see all of the plugins used and the exact settings of each. Included is the full Logic project file complete with MIDI, synth patches, processing settings, samples, as well as access to his signature kicks as ready-to-use, separately engineered audio files. There is so much to take-away from this amazing tutorial.

What you will learn in HARDSTYLE V.1:

1. Hardstyle Lead Synths Sound Design
2. Synth Layering
3. Composing/Arranging a Song (Intro, Breakdown, Build Up, Drop)
4. Chord and Melody Writing
5. Drum Pattern Sequencing
6. Reverb Design
7. Compression
8. EQ
9. Frontliner's Signature Sidechain Technique

also You can look my other last: General
Complete name : Hardstyle V1 with Frontliner.mp4
Format
: MPEG-4
Format profile : Base Media / Version 2
Codec ID
: mp42
File size
: 606 MiB
Duration
: 2h 8mn
Overall bit rate mode : Variable
Overall bit rate : 660 Kbps
Encoded date : UTC 2016-06-23 00:31:34
Tagged date
: UTC 2016-06-23 00:31:34
Writing application

: HandBrake 0.10.5 2016021100

Video
ID : 1
Format
: AVC
Format/Info
: Advanced Video Codec
Format profile : [email protected]
Format settings, CABAC : Yes
Format settings, ReFrames : 4 frames
Codec ID
: avc1
Codec ID/Info : Advanced Video Coding
Duration
: 2h 8mn
Bit rate
: 502 Kbps
Width
: 1 920 pixels
Height
: 1 080 pixels
Display aspect ratio : 16:9
Frame rate mode : Constant
Frame rate
: 24.000 fps
Color space
: YUV
Chroma subsampling

: 4:2:0
Bit depth
: 8 bits
Scan type
: Progressive
Bits/(Pixel*Frame)

: 0.010
Stream size
: 461 MiB (76%)
Writing library : x264 core 142 r2479 dd79a61
Encoding settings: cabac=1 / ref=1 / deblock=1:0:0 / analyse=0x1:0x111 / me=hex / subme=2 / psy=1 / psy_rd=1.00:0.00 / mixed_ref=0 / me_range=16 / chroma_me=1 / trellis=0 / 8x8dct=0 / cqm=0 / deadzone=21,11 / fast_pskip=1 / chroma_qp_offset=0 / threads=6 / lookahead_threads=2 / sliced_threads=0 / nr=0 / decimate=1 / interlaced=0 / bluray_compat=0 / constrained_intra=0 / bframes=3 / b_pyramid=2 / b_adapt=1 / b_bias=0 / direct=1 / weightb=1 / open_gop=0 / weightp=1 / keyint=240 / keyint_min=24 / scenecut=40 / intra_refresh=0 / rc_lookahead=10 / rc=crf / mbtree=1 / crf=20.0 / qcomp=0.60 / qpmin=0 / qpmax=69 / qpstep=4 / vbv_maxrate=20000 / vbv_bufsize=25000 / crf_max=0.0 / nal_hrd=none / filler=0 / ip_ratio=1.40 / aq=1:1.00
Encoded date : UTC 2016-06-23 00:31:34
Tagged date
: UTC 2016-06-23 00:31:34
Color primaries : BT.709
Transfer characteristics : BT.709
Matrix coefficients

: BT.709

Audio
ID : 2
Format
: AAC
Format/Info
: Advanced Audio Codec
Format profile : LC
Codec ID
: 40
Duration
: 2h 8mn
Bit rate mode : Variable
Bit rate
: 152 Kbps
Channel(s)
: 2 channels
Channel positions: Front: L R
Sampling rate : 48.0 KHz
Compression mode : Lossy
Delay relative to video : 83ms
Stream size
: 140 MiB (23%)
Title
: Stereo
Encoded date : UTC 2016-06-23 00:31:34
Tagged date
: UTC 2016-06-23 00:31:34


Studio Sessions With FRONTLINER Hardstyle V.1 (2016)


Studio Sessions With FRONTLINER Hardstyle V.1 (2016)

Studio Sessions With FRONTLINER Hardstyle V.1 (2016)

DOWNLOAD:

Direct Download


Tags: Studio, Sessions, FRONTLINER, Hardstyle


Studio Sessions With FRONTLINER Hardstyle V.1 (2016) Fast Download via Rapidshare Hotfile Fileserve Filesonic Megaupload, Studio Sessions With FRONTLINER Hardstyle V.1 (2016) Torrents and Emule Download or anything related.
Dear visitor, you went to website as unregistered user.
We encourage you to Register or Login to website under your name.

Add comments

Name:*
E-Mail:*
Comments:
Enter Code: *