Information of news
 (Votes #: 0)

Spidey - Induction (2 DVD Set)

Category: Tutorial

Download Now
Spidey - Induction
2xDVDRip | English | MP4 | 856 x 480 | MPEG-4 ~2395 kbps | 29.970 fps
AAC | 126 Kbps | 44.1 KHz | 2 channels | 04:27:53 | 4.37 GB
Genre: eLearning Video / Magic tricks, Illusion, Hypnosis

Learn a new super power; the power to control the human mind. 3+ hours of instruction, including LIVE footage from Spidey's world tour. "Spidey is without a doubt the busiest hypnotist I know in today's market and THE authority on modern stage hypnosis."- Shin Lim Warning: This knowledge is not for the idly curious, the contents of this DVD; if studied properly and used ethically, can change your performance game forever!
The ability to control the mind of another human is nothing short of a true super power. Hypnosis is the ultimate impromptu miracle, with no gimmicks, preparation or set up you can entertain a small group of people or a stadium of thousands. Spidey has made his name and based his entire touring show on one of the most profound of abilities, induced hypnotism. Now, he is opening the vault and handing the keys to his success to you. You are about to learn Spidey's full tailored & time-tested hypnotism show that keeps him booked a full 365 days out of every year all over the western hemisphere. You will also learn everything you need to know to build your very own show from scratch.
You will learn:
- How to script your show
- How to write original skits and how to present them
- Spidey's full induction, perfected over 15 years and tips on how to write your own
- How to leverage suggestion & convincers to optimize success
You will also get an hour of live footage from Spidey's touring show to see how he applies the content of this DVD.
Even if you have zero experience with hypnotism, Spidey will walk you, step by step, through the fundamentals all the way through the master techniques which will take your performance from good to unforgettable.
also You can look my other last:

Complete name : Induction by Spidey Disc 2.3.mp4
Format : MPEG-4
Format profile : Base Media
Codec ID : isom
File size : 487 MiB
Duration : 26mn 58s
Overall bit rate mode : Variable
Overall bit rate : 2 523 Kbps
Encoded date : UTC 2015-12-08 21:40:56
Tagged date : UTC 2015-12-08 21:40:56
Writing application :
ID : 1
Format : MPEG-4 Visual
Format profile : SimpleL1
Format settings, BVOP : No
Format settings, QPel : No
Format settings, GMC : No warppoints
Format settings, Matrix : Default (H.263)
Codec ID : 20
Duration : 26mn 58s
Bit rate mode : Variable
Bit rate : 2 395 Kbps
Maximum bit rate : 10.8 Mbps
Width : 856 pixels
Height : 480 pixels
Display aspect ratio : 16:9
Frame rate mode : Constant
Frame rate : 29.970 fps
Color space : YUV
Chroma subsampling : 4:2:0
Bit depth : 8 bits
Scan type : Progressive
Compression mode : Lossy
Bits/(Pixel*Frame) : 0.194
Stream size : 462 MiB (95%)
Writing library : Lavc53.8.0
Encoded date : UTC 2015-12-08 21:40:56
Tagged date : UTC 2015-12-08 21:42:23
ID : 2
Format : AAC
Format/Info : Advanced Audio Codec
Format profile : LC
Codec ID : 40
Duration : 26mn 58s
Bit rate mode : Variable
Bit rate : 126 Kbps
Maximum bit rate : 188 Kbps
Channel(s) : 2 channels
Channel positions : Front: L R
Sampling rate : 44.1 KHz
Compression mode : Lossy
Stream size : 24.2 MiB (5%)
Encoded date : UTC 2015-12-08 21:42:03
Tagged date : UTC 2015-12-08 21:42:23

Download link:
Links are Interchangeable - Single Extraction - Premium is support resumable
Direct Download

Tags: Spidey, Induction

Spidey - Induction (2 DVD Set) Fast Download via Rapidshare Hotfile Fileserve Filesonic Megaupload, Spidey - Induction (2 DVD Set) Torrents and Emule Download or anything related.
Dear visitor, you went to website as unregistered user.
We encourage you to Register or Login to website under your name.

Add comments

Enter Code: *