Information of news
 (Votes #: 0)

Born To Produce - Cubase Retrologue (2016)

Category: Tutorial

Download Now

http://s2.1pic.org/files/2016/08/30/ae192730872c013a55e0.jpg
Born To Produce - Cubase Retrologue (2016)
WEBRip | English | MP4 | 1998 x 1080 | AVC ~2000 kbps | 29.970 fps
AAC | 69.3 Kbps | 44.1 KHz | 2 channels | 01:02:32 | 1.62 GB
Genre: Video Tutorial / Sound Processing

Did You Know That This Synth Is A MONSTER? Unleash The BEAST!
On this brand new course, you will learn:
The basic overview, setup and signal flow of Retrologue
The basics of synthesis and sound design
How to effectively use the various waveforms, envelope shapers and matrix modifiers
How to create your own bass and lead patch
How to create a huge anthemic pad sound
How to create your own FX without relying on unoriginal samples
And much more!
Cubase 8 Pro or later recommended
Content:
Lesson 1 : Introduction and Overview
Lesson 2 : Creating a Bass / Lead Patch
Lesson 3 : Creating a Huge Anthem Pad
Lesson 4 : Creating Rising FX
Lesson 5 : Creating a Pitched LFO Sync Sound
also You can look my other last:
MediaInfo:

General
Complete name : RBP Creating a bass and lead patch in 6 mins.mp4
Format : MPEG-4
Format profile : Base Media
Codec ID : isom
File size : 248 MiB
Duration : 6mn 20s
Overall bit rate mode : Variable
Overall bit rate : 5 468 Kbps
Encoded date : UTC 2016-08-25 15:14:18
Tagged date : UTC 2016-08-25 15:14:18
Writing application : vlc 2.2.4 stream output
Comment : QuickTime 6.0 or greater
Video
ID : 2
Format : AVC
Format/Info : Advanced Video Codec
Format profile : BaselineL3.0
Format settings, CABAC : No
Format settings, ReFrames : 3 frames
Codec ID : avc1
Codec ID/Info : Advanced Video Coding
Duration : 6mn 20s
Bit rate : 5 392 Kbps
Width : 2 000 pixels
Original width : 1 998 pixels
Height : 1 088 pixels
Original height : 1 080 pixels
Display aspect ratio : 1.85:1
Original display aspect ratio : 1.85:1
Frame rate mode : Variable
Frame rate : 29.970 fps
Minimum frame rate : 29.412 fps
Maximum frame rate : 30.303 fps
Color space : YUV
Chroma subsampling : 4:2:0
Bit depth : 8 bits
Scan type : Progressive
Bits/(Pixel*Frame) : 0.083
Stream size : 245 MiB (99%)
Writing library : Zencoder Video Encoding System
Language : English
Encoded date : UTC 2016-08-25 15:14:18
Tagged date : UTC 2016-08-25 15:14:18
Audio
ID : 1
Format : AAC
Format/Info : Advanced Audio Codec
Format profile : LC
Codec ID : 40
Duration : 6mn 20s
Source duration : 6mn 20s
Bit rate mode : Variable
Bit rate : 69.3 Kbps
Maximum bit rate : 156 Kbps
Channel(s) : 2 channels
Channel positions : Front: L R
Sampling rate : 44.1 KHz
Compression mode : Lossy
Stream size : 3.14 MiB (1%)
Source stream size : 3.14 MiB (1%)
Language : English
Encoded date : UTC 2016-08-25 15:14:18
Tagged date : UTC 2016-08-25 15:14:18
mdhd_Duration : 380853


http://s2.1pic.org/files/2016/08/30/bcae691d9cebb38d4755.jpg

Download link:
Links are Interchangeable - Single Extraction - Premium is support resumable
Direct Download


Tags: Produce, Cubase, Retrologue


Born To Produce - Cubase Retrologue (2016) Fast Download via Rapidshare Hotfile Fileserve Filesonic Megaupload, Born To Produce - Cubase Retrologue (2016) Torrents and Emule Download or anything related.
Dear visitor, you went to website as unregistered user.
We encourage you to Register or Login to website under your name.

Add comments

Name:*
E-Mail:*
Comments:
Enter Code: *