Information of news
 (Votes #: 0)

Ryan Deiss - Native Ad Academy Full

Category: Tutorial

Download Now

http://s2.1pic.org/files/2016/08/30/8e15b8cda465913675ed.jpg
Ryan Deiss - Native Ad Academy Full
WEBRip | English | MP4 + PDF Guides | 800 x 496 | AVC ~266 kbps | 30 fps
AAC | 110 kbps | 44.1 KHz | 2 channels | ~26 hours | 6.93 GB
Genre: eLearning Video / Business, Sales, Marketing

Over the next 28 Days my team and I will walk you through an in-depth 6 module training and help you craft your "Native-Ready" content, get your some IMMEDIATE test traffic and build you a Traffic-Getting machine that drives cheap, targeted clicks for months and YEARS to come!
This Training Includes...
MODULE 1:
Creating Native-Worthy Content
MODULE 2:
Leveraging Facebook's Native Ad Platform
MODULE 3:
Leveraging Twitter's Native Ad Platform
MODULE 4:
Leveraging YouTube and LinkedIn
MODULE 5:
Leveraging Recommended Content Platforms
MODULE 6:
Advanced Tactics and "Sneaky Tricks"
BONUSES:
FB Adpower
Whale Method
Video Sales Letter Formula
also You can watch my other last:
MediaInfo:

General
Complete name : 2. The 7-Step Formula For Creating Native Content.mp4
Format : MPEG-4
Format profile : Base Media / Version 2
Codec ID : mp42
File size : 27.3 MiB
Duration : 10mn 0s
Overall bit rate mode : Variable
Overall bit rate : 381 Kbps
Encoded date : UTC 2014-03-25 19:48:06
Tagged date : UTC 2014-03-25 19:49:33
Writing application : HandBrake 0.9.9 2013051800
Video
ID : 1
Format : AVC
Format/Info : Advanced Video Codec
Format profile : MainL4.0
Format settings, CABAC : Yes
Format settings, ReFrames : 4 frames
Codec ID : avc1
Codec ID/Info : Advanced Video Coding
Duration : 10mn 0s
Bit rate mode : Variable
Bit rate : 266 Kbps
Nominal bit rate : 1 000 Kbps
Width : 800 pixels
Height : 496 pixels
Display aspect ratio : 16:10
Frame rate mode : Constant
Frame rate : 30.000 fps
Color space : YUV
Chroma subsampling : 4:2:0
Bit depth : 8 bits
Scan type : Progressive
Bits/(Pixel*Frame) : 0.022
Stream size : 19.0 MiB (70%)
Writing library : x264 core 130 r2273 b3065e6
Encoding settings : cabac=1 / ref=1 / deblock=1:0:0 / analyse=0x1:0x111 / me=hex / subme=2 / psy=1 / psy_rd=1.00:0.00 / mixed_ref=0 / me_range=16 / chroma_me=1 / trellis=0 / 8x8dct=0 / cqm=0 / deadzone=21,11 / fast_pskip=1 / chroma_qp_offset=0 / threads=36 / lookahead_threads=3 / sliced_threads=0 / nr=0 / decimate=1 / interlaced=0 / bluray_compat=0 / constrained_intra=0 / bframes=3 / b_pyramid=2 / b_adapt=1 / b_bias=0 / direct=1 / weightb=1 / open_gop=0 / weightp=1 / keyint=300 / keyint_min=30 / scenecut=40 / intra_refresh=0 / rc_lookahead=10 / rc=2pass / mbtree=1 / bitrate=1000 / ratetol=1.0 / qcomp=0.60 / qpmin=0 / qpmax=69 / qpstep=4 / cplxblur=20.0 / qblur=0.5 / vbv_maxrate=20000 / vbv_bufsize=25000 / nal_hrd=none / ip_ratio=1.40 / aq=1:1.00
Encoded date : UTC 2014-03-25 19:48:06
Tagged date : UTC 2014-03-25 19:49:33
Color primaries : BT.709
Transfer characteristics : BT.709
Matrix coefficients : BT.709
Audio
ID : 2
Format : AAC
Format/Info : Advanced Audio Codec
Format profile : LC
Codec ID : 40
Duration : 10mn 0s
Bit rate mode : Variable
Bit rate : 110 Kbps
Maximum bit rate : 123 Kbps
Channel(s) : 2 channels
Channel positions : Front: L R
Sampling rate : 44.1 KHz
Compression mode : Lossy
Delay relative to video : 67ms
Stream size : 7.90 MiB (29%)
Encoded date : UTC 2014-03-25 19:48:06
Tagged date : UTC 2014-03-25 19:49:32


http://s2.1pic.org/files/2016/08/30/51362f96b595de15aacc.jpg

Download link:
Bytewhale.com:
https://bytewhale.com/r9m77v5p9fg7/7ao4p.Ryan.Deiss..Native.Ad.Academy.Full.part1.rar
https://bytewhale.com/kj9g099cq34t/7ao4p.Ryan.Deiss..Native.Ad.Academy.Full.part2.rar
https://bytewhale.com/bf85mldb1x35/7ao4p.Ryan.Deiss..Native.Ad.Academy.Full.part3.rar
https://bytewhale.com/9082g76t6byo/7ao4p.Ryan.Deiss..Native.Ad.Academy.Full.part4.rar
https://bytewhale.com/phqba88ntt5k/7ao4p.Ryan.Deiss..Native.Ad.Academy.Full.part5.rar
https://bytewhale.com/g4a28f25fo78/7ao4p.Ryan.Deiss..Native.Ad.Academy.Full.part6.rar
https://bytewhale.com/r5x4xse9mart/7ao4p.Ryan.Deiss..Native.Ad.Academy.Full.part7.rar
https://bytewhale.com/4a8n4mtuatzs/7ao4p.Ryan.Deiss..Native.Ad.Academy.Full.part8.rar

Rapidgator:
http://rapidgator.net/file/fd5ac2ffbea71d4e806db2038c6c7a92/7ao4p.Ryan.Deiss..Native.Ad.Academy.Full.part1.rar.html
http://rapidgator.net/file/27d3d2b492e6ae45451af616715aca5f/7ao4p.Ryan.Deiss..Native.Ad.Academy.Full.part2.rar.html
http://rapidgator.net/file/09789d616d43fafe49bf0dfae15e6480/7ao4p.Ryan.Deiss..Native.Ad.Academy.Full.part3.rar.html
http://rapidgator.net/file/ea10684ea7ac222900e0ec7bd1ffc450/7ao4p.Ryan.Deiss..Native.Ad.Academy.Full.part4.rar.html
http://rapidgator.net/file/fd594ba491f347f987741aa52bd51634/7ao4p.Ryan.Deiss..Native.Ad.Academy.Full.part5.rar.html
http://rapidgator.net/file/217e95d82151e73a7590e3d005187afe/7ao4p.Ryan.Deiss..Native.Ad.Academy.Full.part6.rar.html
http://rapidgator.net/file/0286ccc606f3461cede316d7c8a6a70b/7ao4p.Ryan.Deiss..Native.Ad.Academy.Full.part7.rar.html
http://rapidgator.net/file/f3da650a2e32779e7f4ecd84b70e6c5a/7ao4p.Ryan.Deiss..Native.Ad.Academy.Full.part8.rar.html
Links are Interchangeable - Single Extraction - Premium is support resumable
Direct Download


Tags: Native, Academy


Ryan Deiss - Native Ad Academy Full Fast Download via Rapidshare Hotfile Fileserve Filesonic Megaupload, Ryan Deiss - Native Ad Academy Full Torrents and Emule Download or anything related.
Dear visitor, you went to website as unregistered user.
We encourage you to Register or Login to website under your name.

Add comments

Name:*
E-Mail:*
Comments:
Enter Code: *