Information of news
 (Votes #: 0)

Carl Allen - The Business Giveaway Machine

Category: Tutorial

Download Now

http://s2.1pic.org/files/2016/08/30/0fd12ec4a3da70f2f43f.jpg
Carl Allen - The Business Giveaway Machine
WEBRip | English | MP4 + PDF Guides | 1280 x 720 | AVC ~200 kbps | 30 fps
AAC | 147 kbps | 48.0 KHz | 2 channels | ~22 hours | 5.29 GB
Genre: eLearning Video / Business, Sales, Marketing

I want to give you my 10-step system blueprint to finding your dream million dollar (and more) business . And buying it for zero cash in just 18 weeks.
This is the same plan that I used to buy and sell over 250 businesses with annual sales revenues up to $50 Billion in the last 23 years. Yes, that's Billion with a B.
Most of these deals have been made with 0, yes ZERO, cash upfront.
You know my story. I was sick and tired of buying businesses FOR OTHER PEOPLE. I have created millionaires and billionaires many times over. Things had to change. I needed to do this for myself, then started teaching ordinary Joe's how to do it as well.
also You can watch my other last:
MediaInfo:

General
Complete name : Portal_2.mp4
Format : MPEG-4
Format profile : Base Media / Version 2
Codec ID : mp42
File size : 33.9 MiB
Duration : 13mn 29s
Overall bit rate mode : Variable
Overall bit rate : 352 Kbps
Encoded date : UTC 2015-05-01 07:58:32
Tagged date : UTC 2015-05-01 07:58:32
Video
ID : 1
Format : AVC
Format/Info : Advanced Video Codec
Format profile : HighL3.1
Format settings, CABAC : Yes
Format settings, ReFrames : 4 frames
Format settings, GOP : M=4, N=90
Codec ID : avc1
Codec ID/Info : Advanced Video Coding
Duration : 13mn 29s
Bit rate : 200 Kbps
Width : 1 280 pixels
Height : 720 pixels
Display aspect ratio : 16:9
Frame rate mode : Constant
Frame rate : 30.000 fps
Color space : YUV
Chroma subsampling : 4:2:0
Bit depth : 8 bits
Scan type : Progressive
Bits/(Pixel*Frame) : 0.007
Stream size : 19.3 MiB (57%)
Writing library : x264 core 144 r11 40bb568
Encoding settings : cabac=1 / ref=3 / deblock=1:0:0 / analyse=0x3:0x113 / me=hex / subme=7 / psy=1 / psy_rd=1.00:0.00 / mixed_ref=1 / me_range=16 / chroma_me=1 / trellis=1 / 8x8dct=1 / cqm=0 / deadzone=21,11 / fast_pskip=1 / chroma_qp_offset=-2 / threads=72 / lookahead_threads=5 / sliced_threads=0 / nr=0 / decimate=1 / interlaced=0 / bluray_compat=0 / stitchable=1 / constrained_intra=0 / bframes=3 / b_pyramid=2 / b_adapt=1 / b_bias=0 / direct=1 / weightb=1 / open_gop=0 / weightp=2 / keyint=infinite / keyint_min=30 / scenecut=40 / intra_refresh=0 / rc_lookahead=40 / rc=2pass / mbtree=1 / bitrate=200 / ratetol=1.0 / qcomp=0.60 / qpmin=5 / qpmax=69 / qpstep=4 / cplxblur=20.0 / qblur=0.5 / vbv_maxrate=2750 / vbv_bufsize=7500 / nal_hrd=none / filler=0 / ip_ratio=1.40 / aq=1:1.00
Encoded date : UTC 2015-05-01 07:58:32
Tagged date : UTC 2015-05-01 07:58:32
Color primaries : BT.709
Transfer characteristics : BT.709
Matrix coefficients : BT.709
Audio
ID : 2
Format : AAC
Format/Info : Advanced Audio Codec
Format profile : LC
Codec ID : 40
Duration : 13mn 29s
Bit rate mode : Variable
Bit rate : 147 Kbps
Channel(s) : 2 channels
Channel positions : Front: L R
Sampling rate : 48.0 KHz
Compression mode : Lossy
Delay relative to video : 67ms
Stream size : 14.2 MiB (42%)
Encoded date : UTC 2015-05-01 07:58:32
Tagged date : UTC 2015-05-01 07:58:32


http://s2.1pic.org/files/2016/08/30/82cbdfae4627bde8793b.jpg

Download link:
Links are Interchangeable - Single Extraction - Premium is support resumable
Direct Download


Tags: Business, Giveaway, Machine


Carl Allen - The Business Giveaway Machine Fast Download via Rapidshare Hotfile Fileserve Filesonic Megaupload, Carl Allen - The Business Giveaway Machine Torrents and Emule Download or anything related.
Dear visitor, you went to website as unregistered user.
We encourage you to Register or Login to website under your name.

Add comments

Name:*
E-Mail:*
Comments:
Enter Code: *