Information of news
 (Votes #: 0)

The Defensive Edge Series Volumes 1, 2 & 3

Category: Tutorial

Download Now

The Defensive Edge Series Volumes 1, 2 & 3

The Defensive Edge Series Volumes 1, 2 & 3
3xVHSRip | English | AVI | 544 x 416 | XviD ~1055 kbps | 25 fps
MP3 | 128 kbps | 48.0 KHz | 2 channels | 02:12:17 | 1.17 GB
Genre: eLearning Video / Martial Arts, Knife Fighting

The defensive Edge video series is a comprehensive system of knife self-defense. Composed from Lameco Escrima and the Inosanto System of the Filipino Arts. What make this system unique is that it is designed to allow you to do a high number of repetitions in a short amount of time.

"In all of my training and experiences, the one area of the martial arts that frightens me the most is the knife. It is hard to convey the ugliness of the knife as a weapon. Anyone, trained, untrained , man or woman, is at a significant advantage with a knife."

"What you will learn from the training in this video tape series is what you can do when you can't run away and there is no opportunity to pick up or throw anything in the environment. These techniques are what you will use when you have absolutely no other possibilities."
"Get to the point... Before it gets to you."

Ron Balicki
MediaInfo: General
Complete name : Ron Balicki - The Defensive Edge vol 3.avi
Format
: AVI
Format/Info
: Audio Video Interleave
File size
: 400 MiB
Duration
: 45mn 52s
Overall bit rate mode : Variable
Overall bit rate : 1 219 Kbps
Writing application

: VirtualDubMod 1.5.4.1 (build 2178/release)
Writing library : VirtualDubMod build 2178/release

Video
ID : 0
Format
: MPEG-4 Visual
Format profile : Advanced [email protected]
Format settings, BVOP : 1
Format settings, QPel : No
Format settings, GMC : No warppoints
Format settings, Matrix : Custom
Codec ID
: XVID
Codec ID/Hint : XviD
Duration
: 45mn 52s
Bit rate
: 1 055 Kbps
Width
: 544 pixels
Height
: 416 pixels
Display aspect ratio : 4:3
Frame rate
: 25.000 fps
Color space
: YUV
Chroma subsampling

: 4:2:0
Bit depth
: 8 bits
Scan type
: Progressive
Compression mode : Lossy
Bits/(Pixel*Frame)

: 0.186
Stream size
: 346 MiB (87%)
Writing library : XviD 1.2.1 (UTC 2008-12-04)

Audio
ID : 1
Format
: MPEG Audio
Format version : Version 1
Format profile : Layer 3
Mode
: Joint stereo
Mode extension : MS Stereo
Codec ID
: 55
Codec ID/Hint : MP3
Duration
: 45mn 52s
Bit rate mode : Variable
Bit rate
: 107 Kbps
Nominal bit rate : 128 Kbps
Channel(s)
: 2 channels
Sampling rate : 48.0 KHz
Compression mode : Lossy
Delay relative to video : 48ms
Stream size
: 35.1 MiB (9%)
Alignment
: Split accross interleaves
Writing library : LAME3.98r
Encoding settings: -m j -V 4 -q 2 -lowpass 17 -abr 128

The Defensive Edge Series Volumes 1, 2 & 3 × The Defensive Edge Series Volumes 1, 2 & 3


The Defensive Edge Series Volumes 1, 2 & 3 × The Defensive Edge Series Volumes 1, 2 & 3


The Defensive Edge Series Volumes 1, 2 & 3 × The Defensive Edge Series Volumes 1, 2 & 3

The Defensive Edge Series Volumes 1, 2 & 3 × The Defensive Edge Series Volumes 1, 2 & 3



DOWNLOAD:

Direct Download


Tags: Defensive, Series


The Defensive Edge Series Volumes 1, 2 & 3 Fast Download via Rapidshare Hotfile Fileserve Filesonic Megaupload, The Defensive Edge Series Volumes 1, 2 & 3 Torrents and Emule Download or anything related.
Dear visitor, you went to website as unregistered user.
We encourage you to Register or Login to website under your name.

Add comments

Name:*
E-Mail:*
Comments:
Enter Code: *