Information of news
 (Votes #: 0)

Creative Mix Automation Workflows in Logic Pro X (2016)

Category: Tutorial

Download Now

Creative Mix Automation Workflows in Logic Pro X (2016)

Creative Mix Automation Workflows in Logic Pro X
WEBRip | English | MP4 | 1280 x 720 | AVC ~2304 kbps | 29.970 fps
AAC | 60.7 Kbps | 44.1 KHz | 2 channels | 01:20:19 | 1.4 GB
Genre: Video Tutorial / Sound Processing

Learn How The Pro's Apply Automation To Get Creative Results Automation is one of the principal tools in your mixing kit. With skilled application you can add a lot of add the shading and movement that transforms a good track into a musical journey for your listeners. In this 9-part intermediate course, ADSR instructor Stephen Ellestad takes you through the most effective creative techniques for applying automation using Logic Pro X. From the basics, to useable techniques, right through to a discussion of the bigger picture.

In Creative Automation Workflows in Logic Pro X you will learn how to capitalize on Logic's inbuilt features in both a practical and creative automation workflow.

Starting with an overview of basic automation, you'll learn how to build a creative EDL (edit decision list) and then examine automation techniques for channel & plugin automation, along with discussion and demonstration of region, group, send and section automation in Logic Pro X.
Get More Creative Control Over Your Mixes

By the end of this course you'll be familiar all the different aspects of automation inside of logic pro x including working with plugin and channel automation, automating FX sends and returns, balancing groups and working with automation to shape the tone and parallel processing.
You'll also know how to approach automation from a big picture perspective such as automating sections of a song and using various trim automation styles to really bring in the final detail.

Content:

01 Overview
02 Setting up the session
03 Creative mix set up
04 Channel automation
05 Plugin automation
06 Region automation
07 Sends automation
08 Group automation
09 Section automation

also You can look my other last: MediaInfo: General
Complete name : 02 Setting up the session.mp4
Format
: MPEG-4
Format profile : Base Media
Codec ID
: isom
File size
: 108 MiB
Duration
: 6mn 21s
Overall bit rate mode : Variable
Overall bit rate : 2 372 Kbps
Encoded date : UTC 2016-08-19 04:45:00
Tagged date
: UTC 2016-08-19 04:45:00
Writing application

: vlc 2.2.4 stream output
Comment
: QuickTime 6.0 or greater

Video
ID : 2
Format
: AVC
Format/Info
: Advanced Video Codec
Format profile : [email protected]
Format settings, CABAC : No
Format settings, ReFrames : 3 frames
Format settings, GOP : M=1, N=100
Codec ID
: avc1
Codec ID/Info : Advanced Video Coding
Duration
: 6mn 21s
Bit rate
: 2 304 Kbps
Width
: 1 280 pixels
Height
: 720 pixels
Display aspect ratio : 16:9
Frame rate mode : Variable
Frame rate
: 29.970 fps
Minimum frame rate

: 29.412 fps
Maximum frame rate

: 30.303 fps
Color space
: YUV
Chroma subsampling

: 4:2:0
Bit depth
: 8 bits
Scan type
: Progressive
Bits/(Pixel*Frame)

: 0.083
Stream size
: 105 MiB (97%)
Writing library : Zencoder Video Encoding System
Language
: English
Encoded date : UTC 2016-08-19 04:45:00
Tagged date
: UTC 2016-08-19 04:45:00
Color primaries : BT.709
Transfer characteristics : BT.709
Matrix coefficients

: BT.709

Audio
ID : 1
Format
: AAC
Format/Info
: Advanced Audio Codec
Format profile : LC
Codec ID
: 40
Duration
: 6mn 21s
Source duration : 6mn 21s
Bit rate mode : Variable
Bit rate
: 60.7 Kbps
Maximum bit rate : 158 Kbps
Channel(s)
: 2 channels
Channel positions: Front: L R
Sampling rate : 44.1 KHz
Compression mode : Lossy
Stream size
: 2.76 MiB (3%)
Source stream size

: 2.76 MiB (3%)
Language
: English
Encoded date : UTC 2016-08-19 04:45:00
Tagged date
: UTC 2016-08-19 04:45:00
mdhd_Duration : 381433

Creative Mix Automation Workflows in Logic Pro X (2016)

Creative Mix Automation Workflows in Logic Pro X (2016)

Creative Mix Automation Workflows in Logic Pro X (2016)

DOWNLOAD:

Direct Download


Tags: Creative, Automation, Workflows


Creative Mix Automation Workflows in Logic Pro X (2016) Fast Download via Rapidshare Hotfile Fileserve Filesonic Megaupload, Creative Mix Automation Workflows in Logic Pro X (2016) Torrents and Emule Download or anything related.
Dear visitor, you went to website as unregistered user.
We encourage you to Register or Login to website under your name.

Add comments

Name:*
E-Mail:*
Comments:
Enter Code: *