Information of news
 (Votes #: 0)

The Rosenberg Academy - Gypsy Jazz Guitar

Category: Tutorial

Download Now

The Rosenberg Academy - Gypsy Jazz Guitar

The Rosenberg Academy - Gypsy Jazz Guitar
WEBRip | MP4 + MP3 jam tracks + PDF tabs | English | 640 x 360 | AVC ~1657 kbps | 25 fps
AAC | 128 Kbps | 44.1 KHz | 2 channels | 01:40:01 | 1.03 GB
Genre: eLearning Video / Guitar lesson

An ever expanding library of video guitar lessons in which Stochelo shares his approach to technique, improvisation and rhythm-guitar. If you are a student of gypsy jazz you would probably jump to the chance of having a one-on-one session with Stochelo showing you all the tricks of the trade. And now: this is a real possibility!

You will learn the sound of gypsy jazz the way Stochelo has learned it: studying solos related to specific songs in the repertoire. First you will watch Stochelo play a chorus or two on a well known gypsy jazz standard. Then the solo will be broken down into phrases and licks and through close-ups of the left and right hand Stochelo will show you exactly how everything is played and how it can be used in your own improvisations. Of course every note is written down for you, both in notes and tab with fingerings and the right pick directions. Executing the licks with the right fingerings and pick directions are key to having beautiful and powerful tone and your overall development as a gypsy jazz musician. Many lessons will be available when you sign up and more will be added each month. Check the sample lesson to see an example!
All transcriptions are made by Christiaan van Hemert, one of the best gypsy jazz teachers in the world. He teaches gypsy jazz workshops and masterclasses - both on violin and guitar - around the globe and has helped thousands of students to progress in this unique style.

also You can look my other last: MediaInfo: General
Complete name : Belleville_-_Complete.mp4
Format
: MPEG-4
Format profile : Base Media / Version 2
Codec ID
: mp42
File size
: 22.2 MiB
Duration
: 1mn 44s
Overall bit rate mode : Variable
Overall bit rate : 1 788 Kbps
Encoded date : UTC 2013-12-12 10:51:17
Tagged date
: UTC 2013-12-12 10:52:07
Writing application

: HandBrake 0.9.8 2012071700

Video
ID : 1
Format
: AVC
Format/Info
: Advanced Video Codec
Format profile : [email protected]
Format settings, CABAC : No
Format settings, ReFrames : 2 frames
Codec ID
: avc1
Codec ID/Info : Advanced Video Coding
Duration
: 1mn 44s
Bit rate mode : Variable
Bit rate
: 1 657 Kbps
Width
: 640 pixels
Height
: 360 pixels
Display aspect ratio : 16:9
Frame rate mode : Constant
Frame rate
: 25.000 fps
Color space
: YUV
Chroma subsampling

: 4:2:0
Bit depth
: 8 bits
Scan type
: Progressive
Bits/(Pixel*Frame)

: 0.288
Stream size
: 20.6 MiB (93%)
Writing library : x264 core 120
Encoding settings: cabac=0 / ref=2 / deblock=1:0:0 / analyse=0x1:0x111 / me=umh / subme=6 / psy=1 / psy_rd=1.00:0.00 / mixed_ref=1 / me_range=16 / chroma_me=1 / trellis=0 / 8x8dct=0 / cqm=0 / deadzone=21,11 / fast_pskip=1 / chroma_qp_offset=-2 / threads=12 / sliced_threads=0 / nr=0 / decimate=1 / interlaced=0 / bluray_compat=0 / constrained_intra=0 / bframes=0 / weightp=0 / keyint=250 / keyint_min=25 / scenecut=40 / intra_refresh=0 / rc_lookahead=40 / rc=crf / mbtree=1 / crf=20.0 / qcomp=0.60 / qpmin=3 / qpmax=69 / qpstep=4 / ip_ratio=1.40 / aq=1:1.00
Encoded date : UTC 2013-12-12 10:51:17
Tagged date
: UTC 2013-12-12 10:52:07
Color primaries : BT.709
Transfer characteristics : BT.709
Matrix coefficients

: BT.709

Audio
ID : 2
Format
: AAC
Format/Info
: Advanced Audio Codec
Format profile : LC
Codec ID
: 40
Duration
: 1mn 44s
Bit rate mode : Variable
Bit rate
: 128 Kbps
Maximum bit rate : 159 Kbps
Channel(s)
: 2 channels
Channel positions: Front: L R
Sampling rate : 44.1 KHz
Compression mode : Lossy
Stream size
: 1.59 MiB (7%)
Encoded date : UTC 2013-12-12 10:51:17
Tagged date
: UTC 2013-12-12 10:52:07

The Rosenberg Academy - Gypsy Jazz Guitar × The Rosenberg Academy - Gypsy Jazz Guitar

The Rosenberg Academy - Gypsy Jazz Guitar

The Rosenberg Academy - Gypsy Jazz Guitar × The Rosenberg Academy - Gypsy Jazz Guitar

The Rosenberg Academy - Gypsy Jazz Guitar

The Rosenberg Academy - Gypsy Jazz Guitar × The Rosenberg Academy - Gypsy Jazz Guitar

The Rosenberg Academy - Gypsy Jazz Guitar
The Rosenberg Academy - Gypsy Jazz Guitar × The Rosenberg Academy - Gypsy Jazz Guitar

The Rosenberg Academy - Gypsy Jazz Guitar

DOWNLOAD:

Direct Download


Tags: Rosenberg, Academy, Guitar


The Rosenberg Academy - Gypsy Jazz Guitar Fast Download via Rapidshare Hotfile Fileserve Filesonic Megaupload, The Rosenberg Academy - Gypsy Jazz Guitar Torrents and Emule Download or anything related.
Dear visitor, you went to website as unregistered user.
We encourage you to Register or Login to website under your name.

Add comments

Name:*
E-Mail:*
Comments:
Enter Code: *