Information of news
 (Votes #: 0)

Groove3 - Mixing Drums in Logic Pro X (2016)

Category: Tutorial

Download Now

Groove3 - Mixing Drums in Logic Pro X (2016)

Groove3 - Mixing Drums in Logic Pro X
WEBRip | English | MP4 + Project files | 1600 x 900 | AVC ~516 kbps | 30 fps
AAC | 144 Kbps | 44.1 KHz | 2 channels | 01:32:15 | 833.5 MB
Genre: Video Tutorial / Sound Processing

Logic Pro X is a powerful tool for mixing. In this tutorial video series, Eli Krantzberg demonstrates how to use Logic Pro X to mix drum tracks and get a polished professional sound.

After a short video describing the series, Eli demonstrates how to time align an exterior room mic with the rest of your drum kit. Then he uses Logic Pro X's Channel EQ plug-in on each overhead track to blend all the elements of the drum kit together. Then he compresses the overheads using the classic VCA compressor model in Logic Pro X's Compressor plug-in.

With the overheads taken care of, Eli moves on to the kick drum. He demonstrates how to EQ and compress the kick track, and shows you his trick to fake a second kick drum mic positioned closer to the batter head. Then he teaches you how to generate a sub-kick sound using the Test Oscillator and Noise Gate plug-ins.

Next up, he explains how to process the snare. Eli blends over-the-top gating, transient shaping, distortion, and compression with the original track to add a sharp, saturated attack to the snare. He also demonstrates using the Enveloper plug-in and adding FET-style compression.

Then Eli focuses on the hi-hats and toms. He uses some filtering and EQ to bring out the hi-hat's upper mids as well as various methods to deal with leakage and unwanted ringing in the toms. He also explores how you can use a distant room mic to enhance and manipulate the ambiance of your drum kit.

Eli closes out the series with videos describing some "secret sauce" style tips and techniques, such as using a hi-hat in the sidechain when compressing the tambourine, a kick drum in the sidechain when compressing the bass, parallel compression and mid/side EQing, creating ambiance with Space Designer, and using Logic Pro X's Folder and Summing Stacks when mixing drums.

Whether you've mixed drums before using Logic Pro X and want some extra tips, or you need to learn from scratch, "Mixing Drums in Logic Pro X" will get you where you need to be!

Content:

3:35 Tutorial 1 Introduction
4:40 Tutorial 2 Timing & Phase
9:07 Tutorial 3 Overheads EQ
4:50 Tutorial 4 Overheads Compression
6:45 Tutorial 5 Kick Drum Mics
3:19 Tutorial 6 Creating a Sub Kick
4:00 Tutorial 7 Snare Drum
3:04 Tutorial 8 Snare Parallel Processing
3:24 Tutorial 9 Hi Hat
5:23 Tutorial 10 Small Tom
3:41 Tutorial 11 Floor Tom
5:02 Tutorial 12 Outer Room Mic
2:56 Tutorial 13 Hi Hat & Tambourine Sidechaining
4:38 Tutorial 14 Creating a Drum Room Ambiance
2:47 Tutorial 15 Drum Reverb
4:57 Tutorial 16 Secret Sauce
4:18 Tutorial 17 Kik Drum & Bass Sidechain Compression
5:22 Tutorial 18 Folder Stacks & VCA Groups
5:32 Tutorial 19 Drum Mix Summing Stack
4:55 Tutorial 20 Bonus Tip & Playback

also You can look my other last: MediaInfo: General
Complete name : 08snareparallelprocessing.mp4
Format
: MPEG-4
Format profile : Base Media
Codec ID
: isom
File size
: 14.6 MiB
Duration
: 3mn 4s
Overall bit rate : 664 Kbps
Movie name
: Snare Parallel Processing
Album/Performer : Eli Krantzberg
Part/Position : 1
Part/Total
: 1
Track name/Position

: 8
Track name/Total : 20
Performer
: Mixing Drums in Logic Pro X
Genre
: Video Training
Writing application

: Lavf56.25.101
Copyright
: Groove 3 Inc.
desc
: Blend over-the-top gating, transient shaping, distortion, and compression with the original snare track.
ldes
: Blend over-the-top gating, transient shaping, distortion, and compression with the original snare track.
tvsh
: Mixing Drums in Logic Pro X
tvnn

tves
: 8
tvsn
: 0
stik
: 10
hdvd
: 0

Video
ID : 1
Format
: AVC
Format/Info
: Advanced Video Codec
Format profile : [email protected]
Format settings, CABAC : Yes
Format settings, ReFrames : 4 frames
Codec ID
: avc1
Codec ID/Info : Advanced Video Coding
Duration
: 3mn 4s
Bit rate
: 516 Kbps
Width
: 1 600 pixels
Height
: 900 pixels
Display aspect ratio : 16:9
Frame rate mode : Variable
Frame rate
: 30.000 fps
Minimum frame rate

: 15.000 fps
Maximum frame rate

: 30.000 fps
Color space
: YUV
Chroma subsampling

: 4:2:0
Bit depth
: 8 bits
Scan type
: Progressive
Bits/(Pixel*Frame)

: 0.012
Stream size
: 11.3 MiB (77%)
Writing library : x264 core 142 r2479 dd79a61
Encoding settings: cabac=1 / ref=1 / deblock=1:0:0 / analyse=0x1:0x111 / me=hex / subme=2 / psy=1 / psy_rd=1.00:0.00 / mixed_ref=0 / me_range=16 / chroma_me=1 / trellis=0 / 8x8dct=0 / cqm=0 / deadzone=21,11 / fast_pskip=1 / chroma_qp_offset=0 / threads=12 / lookahead_threads=4 / sliced_threads=0 / nr=0 / decimate=1 / interlaced=0 / bluray_compat=0 / constrained_intra=0 / bframes=3 / b_pyramid=2 / b_adapt=1 / b_bias=0 / direct=1 / weightb=1 / open_gop=0 / weightp=1 / keyint=300 / keyint_min=30 / scenecut=40 / intra_refresh=0 / rc_lookahead=10 / rc=2pass / mbtree=1 / bitrate=516 / ratetol=1.0 / qcomp=0.60 / qpmin=0 / qpmax=69 / qpstep=4 / cplxblur=20.0 / qblur=0.5 / vbv_maxrate=20000 / vbv_bufsize=25000 / nal_hrd=none / filler=0 / ip_ratio=1.40 / aq=1:1.00
Language
: English
Color primaries : BT.709
Transfer characteristics : BT.709
Matrix coefficients

: BT.709

Audio
ID : 2
Format
: AAC
Format/Info
: Advanced Audio Codec
Format profile : LC
Codec ID
: 40
Duration
: 3mn 3s
Bit rate mode : Constant
Bit rate
: 144 Kbps
Channel(s)
: 2 channels
Channel positions: Front: L R
Sampling rate : 44.1 KHz
Compression mode : Lossy
Delay relative to video : 100ms
Stream size
: 3.10 MiB (21%)
Language
: English

Menu #1
ID : 3
Codec ID
: text
Duration
: 3mn 4s
Language
: English

Menu #2
00:00:00.000 : Chapter 1



Groove3 - Mixing Drums in Logic Pro X (2016)
Groove3 - Mixing Drums in Logic Pro X (2016)
Groove3 - Mixing Drums in Logic Pro X (2016)



DOWNLOAD:

Direct Download


Tags: Groove, Mixing


Groove3 - Mixing Drums in Logic Pro X (2016) Fast Download via Rapidshare Hotfile Fileserve Filesonic Megaupload, Groove3 - Mixing Drums in Logic Pro X (2016) Torrents and Emule Download or anything related.
Dear visitor, you went to website as unregistered user.
We encourage you to Register or Login to website under your name.

Add comments

Name:*
E-Mail:*
Comments:
Enter Code: *