Information of news
 (Votes #: 0)

Create Better Black and White Photographs (2016)

Category: Tutorial

Download Now

Create Better Black and White Photographs (2016)

Create Better Black and White Photographs
WEBRip | MP4 | English | 1280 x 720 | AVC ~2137 kbps | 23.976 fps
AAC | 125 Kbps | 48.0 KHz | 2 channels | 01:22:30 | 1.21 GB
Genre: eLearning Video / Photographing, Adobe Photoshop

Most people know how to use Photoshop features to create black and white images, but many of these conversions aren't very good. Join instructor Chris Orwig for Create Better Black and White Photographs and make black and white images that are expressive and strong.

You'll learn how to use Lightroom and Photoshop together in a seamless way to give photographs rich and deep tonal range. Chris will show you how to change the brightness values of specific tones and help you selectively add brightness and darkness to direct the viewer's eye through the image. By working with a wide range of subjects, you'll explore how to use presets and settings to help you achieve film and analog looks in your digital black and whites.

Topics include:

01-Understanding_Controls-HD
02-Travel_Photographs-HD
03-iPhone_Images-HD
04-Skin_Tones-HD
05-Retouching_Workflow-HD
06-Batch_Workflow-HD
07-Presets-HD
08-HDR_Toning-HD

also You can look my other last: MediaInfo: General
Complete name : 02-Travel_Photographs-HD.mp4
Format
: MPEG-4
Format profile : Base Media / Version 2
Codec ID
: mp42
File size
: 87.3 MiB
Duration
: 5mn 23s
Overall bit rate mode : Variable
Overall bit rate : 2 267 Kbps
Encoded date : UTC 2015-02-27 21:43:08
Tagged date
: UTC 2015-02-27 21:43:10
©TIM
: 00:00:00:00
©TSC
: 24000
©TSZ
: 1001

Video
ID : 1
Format
: AVC
Format/Info
: Advanced Video Codec
Format profile : [email protected]
Format settings, CABAC : Yes
Format settings, ReFrames : 3 frames
Codec ID
: avc1
Codec ID/Info : Advanced Video Coding
Duration
: 5mn 23s
Bit rate
: 2 137 Kbps
Width
: 1 280 pixels
Height
: 720 pixels
Display aspect ratio : 16:9
Frame rate mode : Constant
Frame rate
: 23.976 fps
Standard
: NTSC
Color space
: YUV
Chroma subsampling

: 4:2:0
Bit depth
: 8 bits
Scan type
: Progressive
Bits/(Pixel*Frame)

: 0.097
Stream size
: 82.3 MiB (94%)
Language
: English
Encoded date : UTC 2015-02-27 21:43:08
Tagged date
: UTC 2015-02-27 21:43:08
Color primaries : BT.709
Transfer characteristics : BT.709
Matrix coefficients

: BT.709

Audio
ID : 2
Format
: AAC
Format/Info
: Advanced Audio Codec
Format profile : LC
Codec ID
: 40
Duration
: 5mn 23s
Source duration : 5mn 23s
Bit rate mode : Variable
Bit rate
: 125 Kbps
Maximum bit rate : 199 Kbps
Channel(s)
: 2 channels
Channel positions: Front: L R
Sampling rate : 48.0 KHz
Compression mode : Lossy
Stream size
: 4.83 MiB (6%)
Source stream size

: 4.83 MiB (6%)
Language
: English
Encoded date : UTC 2015-02-27 21:43:08
Tagged date
: UTC 2015-02-27 21:43:08



Create Better Black and White Photographs (2016)
Create Better Black and White Photographs (2016)
Create Better Black and White Photographs (2016)
Create Better Black and White Photographs (2016)
Create Better Black and White Photographs (2016)



DOWNLOAD:

Direct Download


Tags: Create, Better, Photographs


Create Better Black and White Photographs (2016) Fast Download via Rapidshare Hotfile Fileserve Filesonic Megaupload, Create Better Black and White Photographs (2016) Torrents and Emule Download or anything related.
Dear visitor, you went to website as unregistered user.
We encourage you to Register or Login to website under your name.

Add comments

Name:*
E-Mail:*
Comments:
Enter Code: *