Information of news
 (Votes #: 0)

Pro Studio Live - Most Essential Functions Of Compressors (2016)

Category: Tutorial

Download Now

Pro Studio Live - Most Essential Functions Of Compressors (2016)

Pro Studio Live - Most Essential Functions Of Compressors
WEBRip | English | MP4 | 1280 x 720 | AVC ~890 kbps | 29.970 fps
AAC | 175 Kbps | 48.0 KHz | 2 channels | 02:51:13 | 1.26 GB
Genre: Video Tutorial / Sound Processing

Compressors are the most mysterious of all studio processors, and yet they are one of the most important in today's music production. Whether you're into recording, mixing, mastering, live sound, broadcast, or podcasts you need to know how to use compressors. In this event Engineer/Producer/Educator Ian Sutton will dig into digital audio compression, basic compressor controls, some advanced compressor controls, different types of compressors, what compressors are commonly used for certain instruments, how to setup any compressor on any instrument and much more.

also You can look my other last: MediaInfo: General
Complete name :Pro Studio Live - Most Essential Functions Of Compressors Episode 2.mp4
Format
: MPEG-4
Format profile : Base Media / Version 2
Codec ID
: mp42
File size
: 340 MiB
Duration
: 44mn 23s
Overall bit rate mode : Variable
Overall bit rate : 1 070 Kbps
Encoded date : UTC 2016-07-12 00:33:11
Tagged date
: UTC 2016-07-12 00:45:03
Writing application

: HandBrake 0.9.9 2013052900

Video
ID : 1
Format
: AVC
Format/Info
: Advanced Video Codec
Format profile : [email protected]
Format settings, CABAC : Yes
Format settings, ReFrames : 4 frames
Codec ID
: avc1
Codec ID/Info : Advanced Video Coding
Duration
: 44mn 23s
Bit rate mode : Variable
Bit rate
: 890 Kbps
Width
: 1 280 pixels
Height
: 720 pixels
Display aspect ratio : 16:9
Frame rate mode : Constant
Frame rate
: 29.970 fps
Color space
: YUV
Chroma subsampling

: 4:2:0
Bit depth
: 8 bits
Scan type
: Progressive
Bits/(Pixel*Frame)

: 0.032
Stream size
: 283 MiB (83%)
Writing library : x264 core 130 r2273 b3065e6
Encoding settings: cabac=1 / ref=1 / deblock=1:0:0 / analyse=0x1:0x111 / me=hex / subme=2 / psy=1 / psy_rd=1.00:0.00 / mixed_ref=0 / me_range=16 / chroma_me=1 / trellis=0 / 8x8dct=0 / cqm=0 / deadzone=21,11 / fast_pskip=1 / chroma_qp_offset=0 / threads=6 / lookahead_threads=2 / sliced_threads=0 / nr=0 / decimate=1 / interlaced=0 / bluray_compat=0 / constrained_intra=0 / bframes=3 / b_pyramid=2 / b_adapt=1 / b_bias=0 / direct=1 / weightb=1 / open_gop=0 / weightp=1 / keyint=300 / keyint_min=30 / scenecut=40 / intra_refresh=0 / rc_lookahead=10 / rc=crf / mbtree=1 / crf=20.0 / qcomp=0.60 / qpmin=0 / qpmax=69 / qpstep=4 / vbv_maxrate=20000 / vbv_bufsize=25000 / crf_max=0.0 / nal_hrd=none / ip_ratio=1.40 / aq=1:1.00
Encoded date : UTC 2016-07-12 00:33:11
Tagged date
: UTC 2016-07-12 00:45:02
Color primaries : BT.709
Transfer characteristics : BT.709
Matrix coefficients

: BT.709

Audio
ID : 2
Format
: AAC
Format/Info
: Advanced Audio Codec
Format profile : LC
Codec ID
: 40
Duration
: 44mn 23s
Bit rate mode : Variable
Bit rate
: 175 Kbps
Maximum bit rate : 323 Kbps
Channel(s)
: 2 channels
Channel positions: Front: L R
Sampling rate : 48.0 KHz
Compression mode : Lossy
Delay relative to video : 67ms
Stream size
: 55.5 MiB (16%)
Encoded date : UTC 2016-07-12 00:33:11
Tagged date
: UTC 2016-07-12 00:45:01



Pro Studio Live - Most Essential Functions Of Compressors (2016)
Pro Studio Live - Most Essential Functions Of Compressors (2016)
Pro Studio Live - Most Essential Functions Of Compressors (2016)
Pro Studio Live - Most Essential Functions Of Compressors (2016)



DOWNLOAD:

Direct Download


Tags: Studio, Essential, Functions, Compressors


Pro Studio Live - Most Essential Functions Of Compressors (2016) Fast Download via Rapidshare Hotfile Fileserve Filesonic Megaupload, Pro Studio Live - Most Essential Functions Of Compressors (2016) Torrents and Emule Download or anything related.
Dear visitor, you went to website as unregistered user.
We encourage you to Register or Login to website under your name.

Add comments

Name:*
E-Mail:*
Comments:
Enter Code: *