Information of news
 (Votes #: 0)

Divulge Academy - Earn 7k Per Day Promoting CPA Offers (2016)

Category: Tutorial

Download Now

http://s2.1pic.org/files/2016/08/04/0c22ee6b4cbb4302f7c8.jpg
Divulge Academy - Earn 7k Per Day Promoting CPA Offers
WEBRip | English | MP4 | 1280 x 720 | AVC ~200 kbps | 30 fps
AAC | 235 Kbps | 48.0 KHz | 2 channels | ~8 hours | 1.92 GB
Genre: eLearning Video / Business, Net: Advertising, Web Traffic

Zero to 100 CPA Marketing Training When you join Divulge Academy we will be training you to be a 100% competent, cutting edge CPA marketer that is skilled in what actually is working in CPA. ( Even if you are a total beginner )
Beginner Friendly
Even if you are starting from scratch , we will have you running circles around other CPA Marketers in your industry within 30 days of joining our program. All you need to do is apply yourself!
Cutting Edge Marketing Tactics
Once we train you in the basics we will take you to the next level and you will be applying advanced tactics that most CPA Marketers are either doing wrong or don't know about.
Live Webinar Q/A
Every month you will have multiple chances to sit down with own coaches ( who make over 45k per month from their own CPA Marketing ) and get all your question answered.
Traffic Source Training
We are constantly adding new tactics that will help you get unlimited traffice to your CPA offers. These traffic sources are here to stay for many years to come, ensuring long-term revenue.
Expert Community
Join our community of expert CPA Marketers and Description new ways to profit quickly . Get daily interaction with the coaches and have any question answered in a timely manner.
Stay On The Cutting Edge
Stop trying to figure out how to promote your offers. Let us do all the analytical testing and give you the answers + update you when anything changes.
What Is Divulge Academy?
Divulge Academy is a never ending monthly CPA education and community
What Exactly Do I Get?
Always Growing CPA Training Archive When you join you Divulge Acdemy, you will get immediate access to our entire CPA training archive that is updating every month with new updated infomation.
Live Help Webinars and Community Multiple timer per month , our experienced coaches will sit down and answer all your questions live and we will give you access to our private Facebook group
More Info:
also You can watch my other last:
MediaInfo:

General
Complete name : 2-Introduction to Cost-per-action (CPA) Marketing.mp4
Format : MPEG-4
Format profile : Base Media / Version 2
Codec ID : mp42
File size : 30.9 MiB
Duration : 9mn 49s
Overall bit rate mode : Variable
Overall bit rate : 440 Kbps
Encoded date : UTC 2016-03-17 14:17:00
Tagged date : UTC 2016-03-17 14:17:00
Video
ID : 1
Format : AVC
Format/Info : Advanced Video Codec
Format profile : HighL3.1
Format settings, CABAC : Yes
Format settings, ReFrames : 5 frames
Codec ID : avc1
Codec ID/Info : Advanced Video Coding
Duration : 9mn 49s
Bit rate : 200 Kbps
Width : 1 280 pixels
Height : 720 pixels
Display aspect ratio : 16:9
Frame rate mode : Constant
Frame rate : 30.000 fps
Color space : YUV
Chroma subsampling : 4:2:0
Bit depth : 8 bits
Scan type : Progressive
Bits/(Pixel*Frame) : 0.007
Stream size : 14.1 MiB (45%)
Writing library : x264 core 148 r11 a01e339
Encoding settings : cabac=1 / ref=5 / deblock=1:0:0 / analyse=0x3:0x113 / me=umh / subme=8 / psy=1 / psy_rd=1.00:0.00 / mixed_ref=1 / me_range=16 / chroma_me=1 / trellis=1 / 8x8dct=1 / cqm=0 / deadzone=21,11 / fast_pskip=1 / chroma_qp_offset=-2 / threads=22 / lookahead_threads=3 / sliced_threads=0 / nr=0 / decimate=1 / interlaced=0 / bluray_compat=0 / stitchable=1 / constrained_intra=0 / bframes=3 / b_pyramid=2 / b_adapt=2 / b_bias=0 / direct=3 / weightb=1 / open_gop=0 / weightp=2 / keyint=infinite / keyint_min=30 / scenecut=40 / intra_refresh=0 / rc_lookahead=50 / rc=2pass / mbtree=1 / bitrate=200 / ratetol=1.0 / qcomp=0.60 / qpmin=5 / qpmax=69 / qpstep=4 / cplxblur=20.0 / qblur=0.5 / vbv_maxrate=2750 / vbv_bufsize=7500 / nal_hrd=none / filler=0 / ip_ratio=1.40 / aq=1:1.00
Encoded date : UTC 2016-03-17 14:17:00
Tagged date : UTC 2016-03-17 14:17:00
Color primaries : BT.709-5, BT.1361, IEC 61966-2-4, SMPTE RP177
Transfer characteristics : BT.709-5, BT.1361
Matrix coefficients : BT.709-5, BT.1361, IEC 61966-2-4 709, SMPTE RP177
Audio
ID : 2
Format : AAC
Format/Info : Advanced Audio Codec
Format profile : LC
Codec ID : 40
Duration : 9mn 49s
Bit rate mode : Variable
Bit rate : 235 Kbps
Channel(s) : 2 channels
Channel positions : Front: L R
Sampling rate : 48.0 KHz
Compression mode : Lossy
Delay relative to video : -3ms
Stream size : 16.5 MiB (53%)
Encoded date : UTC 2016-03-17 14:17:00
Tagged date : UTC 2016-03-17 14:17:00
Screenshots

http://s2.1pic.org/files/2016/08/04/ca622e6cf34af542318e.jpg

http://s2.1pic.org/files/2016/08/04/b2cf1279be8f3def4921.jpg

http://s2.1pic.org/files/2016/08/04/0c10810bd946d330f7e0.jpg

http://s2.1pic.org/files/2016/08/04/3ce52f71b18213c5c717.jpg





Download link:
Rapidgator:
http://rapidgator.net/file/28e104e5b897d7f8547f0fe3e4cf4b40/8k4g3.Divulge.Academy..Earn.7k.Per.Day.Promoting.CPA.Offers.2016.part1.rar.html
http://rapidgator.net/file/cb75afabd630c98bd127bb8de7988d70/8k4g3.Divulge.Academy..Earn.7k.Per.Day.Promoting.CPA.Offers.2016.part2.rar.html
http://rapidgator.net/file/bcae60818cbffb04dde971ce52494fa9/8k4g3.Divulge.Academy..Earn.7k.Per.Day.Promoting.CPA.Offers.2016.part3.rar.html
http://rapidgator.net/file/892830df26c2e6924b95f5dc4bd5f203/8k4g3.Divulge.Academy..Earn.7k.Per.Day.Promoting.CPA.Offers.2016.part4.rar.html
http://rapidgator.net/file/ff56c2eecbb840e48cb107134079c630/8k4g3.Divulge.Academy..Earn.7k.Per.Day.Promoting.CPA.Offers.2016.part5.rar.html

Nitroflare:
http://nitroflare.com/view/0D74A844359B95B/8k4g3.Divulge.Academy..Earn.7k.Per.Day.Promoting.CPA.Offers.2016.part1.rar
http://nitroflare.com/view/6DB34F3F6C453EE/8k4g3.Divulge.Academy..Earn.7k.Per.Day.Promoting.CPA.Offers.2016.part2.rar
http://nitroflare.com/view/73785231FBBECD0/8k4g3.Divulge.Academy..Earn.7k.Per.Day.Promoting.CPA.Offers.2016.part3.rar
http://nitroflare.com/view/3DE6427036FF29F/8k4g3.Divulge.Academy..Earn.7k.Per.Day.Promoting.CPA.Offers.2016.part4.rar
http://nitroflare.com/view/A0A56465C26B041/8k4g3.Divulge.Academy..Earn.7k.Per.Day.Promoting.CPA.Offers.2016.part5.rar

Bigfile.to:
https://www.bigfile.to/file/UvGVRpQZweft/8k4g3.Divulge.Academy..Earn.7k.Per.Day.Promoting.CPA.Offers.2016.part1.rar
https://www.bigfile.to/file/p2ZzmhAUemNn/8k4g3.Divulge.Academy..Earn.7k.Per.Day.Promoting.CPA.Offers.2016.part2.rar
https://www.bigfile.to/file/5wbhW2aJybxm/8k4g3.Divulge.Academy..Earn.7k.Per.Day.Promoting.CPA.Offers.2016.part3.rar
https://www.bigfile.to/file/UHy3ajjGAF3P/8k4g3.Divulge.Academy..Earn.7k.Per.Day.Promoting.CPA.Offers.2016.part4.rar
https://www.bigfile.to/file/FPJn3rW6e8gW/8k4g3.Divulge.Academy..Earn.7k.Per.Day.Promoting.CPA.Offers.2016.part5.rar
Links are Interchangeable - Single Extraction - Premium is support resumable
Direct Download


Tags: Divulge, Academy, Promoting, Offers


Divulge Academy - Earn 7k Per Day Promoting CPA Offers (2016) Fast Download via Rapidshare Hotfile Fileserve Filesonic Megaupload, Divulge Academy - Earn 7k Per Day Promoting CPA Offers (2016) Torrents and Emule Download or anything related.
Dear visitor, you went to website as unregistered user.
We encourage you to Register or Login to website under your name.

Add comments

Name:*
E-Mail:*
Comments:
Enter Code: *