Information of news
 (Votes #: 0)

Jon Penberthy - Tube Traffic Mastery & Masterclass Coaching (2016)

Category: Tutorial

Download Now
Jon Penberthy - Tube Traffic Mastery & Masterclass Coaching (2016)
WEBRip | English | MP4 + PDF Guides | 1280 x 720 | AVC ~333 kbps | 25 fps
AAC | 75.6 Kbps | 44.1 KHz | 2 channels | ~20 hours | 6.07 GB
Genre: eLearning Video / Business, Net: Advertising, Web Traffic

What's included in The Tube Traffic Mastery package? Tube Traffic Mastery 6 Core Modules TTM will teach you how to absolutely dominate YouTube for traffic, leads and sales. You'll learn how to have your videos ranked at the top of Google and YouTube, but not just that, how to also get those visitors off of YouTube and onto your website and turn them into leads and sales. No stone is left unturned and everything is covered in a completely step by step manner. The only way you could go wrong is if you don't follow the training in the steps I've laid out.
Tube Traffic Mastery Study Guides & Checklists

The entire Tube Traffic Mastery method in step-by-step PDF's!
After you watch each training video you can refer to that module's checklist to ensure that you have implemented every step.
These are vital to have open as you work through the Tube Traffic Mastery method, to make sure that nothing is left out.
TTM FAST START Training Course

- Brand new to online marketing?
- Want to get started straight away?
The Fast Start training will get you up and running as quickly as possible.
Ideal for those who wish to start selling products succesfuly using YouTube without studying hours of in-depth material. Just watch the Fast Start video in each module, and away you go!
Bonus 1: 6 Week Master Class

Join me for 6 weeks of coaching as I take you through all aspects of the Tube Traffic Mastery system, and break it down for you step by step so you know exactly how to get set up. We will also go deep into understanding capture pages, relationship marketing, and my 7 figure list building and email secrets.
When you have finished the 6 weeks with me you will have everything you need to succeed with your online business.
Bonus 2: Recording From Russell's Event

Exclusive footage from Russell Brunson's $10K coaching group!
This training is a 2 hour recording of training that I did at Russell Brunson's coaching event. He flew me all the way from London, UK to Boise, Idaho to train his coaching clients on exactly what it is I'm doing with YouTube to drive huge results for my business.
This is an exclusive recording that can't be purchased anywhere on the internet. Everyone in the room payed at least $10,000 to attend!
Bonus 3: Weekly Q&A Hot Seat Coaching

When you purchase my Tube Traffic Mastery training I want you to succeed, so I have made it a priority to hold regular coaching sessions with TTM members.
It's an exclusive bonus where members are invited to chat with me LIVE and ask specific questions to do with internet marketing to help your business succeed.
Extra Bonus 1: Backlink Power

In Backlink Power I literally show you the EXACT backlinks I use to rank my videos on the first page of Google and YouTube.
After 2-3 years of testing, I now know EXACTLY where to go for backlinks when I need a video ranked.
They work like a dream and I'm going to share my complete Rolodex with you.
Extra Bonus 2: Launch Sniper

Launch Sniping is how I first found success with online marketing.
It is the easiest route to making $10k per month, so join me as I break down the technique and show you how to make big money from other people's product launches.
ANYONE can use this method to get results FAST
More Info:

also You can watch my other last:

Complete name : 2. FAST START- ClickBank Riches.mp4
Format : MPEG-4
Format profile : Base Media
Codec ID : isom
File size : 54.0 MiB
Duration : 18mn 46s
Overall bit rate mode : Variable
Overall bit rate : 402 Kbps
Movie name : 2. FAST START- ClickBank Riches
Tagged date : UTC 2016-07-19 20:49:35
Writing application : Lavf54.29.104
hdvd : 0
stik : 9
cnID : 0
ID : 1
Format : AVC
Format/Info : Advanced Video Codec
Format profile : HighL3.1
Format settings, CABAC : Yes
Format settings, ReFrames : 4 frames
Codec ID : avc1
Codec ID/Info : Advanced Video Coding
Duration : 18mn 46s
Bit rate : 333 Kbps
Width : 1 280 pixels
Height : 720 pixels
Display aspect ratio : 16:9
Frame rate mode : Constant
Frame rate : 25.000 fps
Color space : YUV
Chroma subsampling : 4:2:0
Bit depth : 8 bits
Scan type : Progressive
Bits/(Pixel*Frame) : 0.014
Stream size : 42.9 MiB (80%)
Writing library : x264 core 129
Encoding settings : cabac=1 / ref=3 / deblock=1:0:0 / analyse=0x3:0x113 / me=hex / subme=7 / psy=1 / psy_rd=1.00:0.00 / mixed_ref=1 / me_range=16 / chroma_me=1 / trellis=1 / 8x8dct=1 / cqm=0 / deadzone=21,11 / fast_pskip=1 / chroma_qp_offset=-2 / threads=6 / lookahead_threads=1 / sliced_threads=0 / nr=0 / decimate=1 / interlaced=0 / bluray_compat=0 / constrained_intra=0 / bframes=3 / b_pyramid=2 / b_adapt=1 / b_bias=0 / direct=1 / weightb=1 / open_gop=0 / weightp=2 / keyint=250 / keyint_min=25 / scenecut=40 / intra_refresh=0 / rc_lookahead=40 / rc=abr / mbtree=1 / bitrate=333 / ratetol=1.0 / qcomp=0.60 / qpmin=0 / qpmax=69 / qpstep=4 / ip_ratio=1.40 / aq=1:1.00
Language : English
ID : 2
Format : AAC
Format/Info : Advanced Audio Codec
Format profile : LC
Codec ID : 40
Duration : 18mn 46s
Bit rate mode : Variable
Bit rate : 75.6 Kbps
Maximum bit rate : 90.0 Kbps
Channel(s) : 2 channels
Channel positions : Front: L R
Sampling rate : 44.1 KHz
Compression mode : Lossy
Delay relative to video : -2ms
Stream size : 10.1 MiB (19%)
Language : English
ID : 3
Format : Apple text
Codec ID : text
Duration : 18mn 46s
Bit rate : 0 bps
Delay relative to video : -2ms
Stream size : 23.0 Bytes (0%)
Encoded date : UTC 2016-07-19 20:49:35
Tagged date : UTC 2016-07-19 20:49:35

Download link:

Links are Interchangeable - Single Extraction - Premium is support resumable
Direct Download

Tags: Penberthy, Traffic, Mastery, Masterclass, Coaching

Jon Penberthy - Tube Traffic Mastery & Masterclass Coaching (2016) Fast Download via Rapidshare Hotfile Fileserve Filesonic Megaupload, Jon Penberthy - Tube Traffic Mastery & Masterclass Coaching (2016) Torrents and Emule Download or anything related.
Dear visitor, you went to website as unregistered user.
We encourage you to Register or Login to website under your name.

Add comments

Enter Code: *