Information of news
 (Votes #: 0)

Aidan Booth & Steve Clayton - 100K Factory Ultra Edition (2016)

Category: Tutorial

Download Now
Aidan Booth & Steve Clayton - 100K Factory Ultra Edition
WEBRip | English | MP4 + PDF Guides + work files | 960 x 720 | AVC ~58 kbps | 23.976 fps
AAC | 126 Kbps | 44.1 KHz | 2 channels | ~52 hours | 6.31 GB
Genre: eLearning Video / Business, Sales, Marketing

Everyone dreams about setting up a business. This means that you have financial freedom. Internet business gives you complete control of your life. But for it to succeed, You need a Put in considerable amount of hard work. You need a formula to succeed. This is what the 100k factory Ultra Edition by Aidan Booth And Steve Clayton teaches you. From the best SEO practices to social media marketing and drafting online business proposal's, this program will give you all the essentials you need to succeed in your online business.
The 100k factory Ultra Edition is a step by step Internet marketing system that will teach you how to implement powerful on-line marketing strategies to help you attain your financial freedom by growing your cloud business to the six figure mark. The author's Aidan Booth and Steve Clayton have extensive experience when it comes to running successful web enterprises. These guys are also the brains behind 100k factory, eformula evolution and page one evolution.
The 100k factory Ultra Edition will teach you how to:
1. Composing a business plan
According to the 100k factory Ultra Edition, when composing a business plan to promote your on-line company, you need to make use of headings and sub headings. This will enable your prospect to scan through duplicate information easily.
2. Designing your website.
A website is the backbone of any successful Internet business. You need to design your website in a way which is attractive to your visitors. Make sure you display your contact information in every page, even if you will display it as a foot note. Also ensure you portray your products in an attractive way on your website. A well designed website will be more indexed compared to poorly designed websites.
3. Using social media as a marketing leverage.
Social media is a very powerful marketing tool. Every Internet based business has to learn how to exploit social media to grow its customer base. The 100 k factory will teach how to Leverage the power of social media for your benefit.
4. How to use the best SEO techniques for your website
Online business does not stop at building a beautiful website. You have to ensure that the website is visible on the Internet. This can only be achieved thorough search engine optimization. The 100k factory will teach you how to utilize the latest SEO techniques to optimize your website for maximum search engine visibility. These trends include link building, keyword positioning and so on.
The 100k factory Ultra Edition is one of the best training program for those willing to break even in the saturated world of on-line entrepreneurship. It takes you thorough the process in a clear slow paced way which is suitable to both beginners and veterans a like. The formulas described in this program has been tested and proven by veteran who have been in the business form years. Though this program is paid, you will be assured of getting your monies worth. Its a must have for everyone who is serious with their on-line business.
Price: $997
More Info:

MediaInfo: GeneralComplete name : Upgraded Bonus #2 Finding Royalty Free Images for Free.mp4Format : MPEG-4Format profile : Base Media / Version 2Codec ID : mp42File size : 216 MiBDuration : 49mn 1sOverall bit rate : 615 KbpsEncoded date : UTC 2016-07-26 20:54:07Tagged date : UTC 2016-07-26 21:17:21VideoID : 1Format : AVCFormat/Info : Advanced Video CodecFormat profile : BaselineL3.1Format settings, CABAC : NoFormat settings, ReFrames : 1 frameCodec ID : avc1Codec ID/Info : Advanced Video CodingDuration : 49mn 1sBit rate mode : VariableBit rate : 550 KbpsWidth : 1 920 pixelsHeight : 1 080 pixelsDisplay aspect ratio : 16:9Frame rate mode : VariableFrame rate : 5.608 fpsMinimum frame rate : 4.975 fpsMaximum frame rate : 29.851 fpsColor space : YUVChroma subsampling : 4:2:0Bit depth : 8 bitsScan type : ProgressiveBits/(Pixel*Frame) : 0.047Stream size : 193 MiB (89%)Title : Citrix h264 stream handlerLanguage : EnglishAudioID : 2Format : AACFormat/Info : Advanced Audio CodecFormat profile : LCCodec ID : 40Duration : 49mn 1sBit rate mode : ConstantBit rate : 64.0 KbpsChannel(s) : 1 channelChannel positions : Front: CSampling rate : 16.0 KHzCompression mode : LossyStream size : 22.5 MiB (10%)Title : AAC stream handlerLanguage : English


Download link:


Links are Interchangeable - Single Extraction - Premium is support resumable
Direct Download

Tags: Clayton, Factory

Aidan Booth & Steve Clayton - 100K Factory Ultra Edition (2016) Fast Download via Rapidshare Hotfile Fileserve Filesonic Megaupload, Aidan Booth & Steve Clayton - 100K Factory Ultra Edition (2016) Torrents and Emule Download or anything related.
Dear visitor, you went to website as unregistered user.
We encourage you to Register or Login to website under your name.

Add comments

Enter Code: *